img image001 image001 image001 image001 image001 image001 image001 image001 image001 image001 image001 image001 image001 image001 image001

Planets Sun Sun Sun
Статистика раздачи
Автор: PriZraK | Размер: 4.47 ГБ | Добавлен: 15 фев 2014
Раздают: 43    Качают: 12
Скачать торрент
Скачать торрент
Описание торрента

СообщениеДобавлено: 15 фев 2014 



Год выпуска: 2012-2013
Выпущено: Великобритания / Ludorum
Жанр: мультфильм, семейный
Продолжительность: 29 х ~ 00:10:01

Перевод: Профессиональный (дублированный)
Оригинальная аудиодорожка: нет
Субтитры: нет

Режиссер: Сара Болл / Sarah Ball, Сяо-дун Сюй / Xiao-dong Xu...

Роли озвучивали: Бриджид Хэррингтон, Тони Террачьяно, Морган Овертон, Имоджен Бэйли, Мария Дарлинг, Чарли Джордж, Энди Найман, Пол Патинг, Изабелла Пальмиери, Тревор Уайт...

Роли дублировали: Евгений Вальц, Игорь Тарадайкин

Описание: Чаггингтон — настоящий мир поездов, в котором старательные паровозики-малыши Уилсон, Коко и Брюстер готовятся стать большими поездами.





Примечание: Вот так пронумерованы у издателя диски, название серий под спойлером. Ширина практически у всех исходников одинаковая - 720, а вот высота разная, от 368 до 544 пикселя...

Качество: DVDRip (5 x DVD5 R5)
Формат: AVI

Видео: от 720x368 (1,957:1) до 720x544 (4:3), 25.000 fps, XViD ~ 2000 kbps avg, от 0.301 до 0.204 bit/pixel
Аудио: 48 kHz, AC3 2 ch, 192 kbps, русский

Раздача от:

Диск № 1 "Гудящие трубы"
01. Кто будет первым?
02. Снимок для газеты
03. Важное правило
04. Премия года
05. Кто сильнее?
06. Золотое колесо

Диск № 2 "Зимние приключения"
01. Зимнее приключение
02. Самый жаркий день
03. Ледяной дождь
04. Приключения в горах
05. Штормовое предупреждение
06. Поезда спешат на помощь

Диск № 3 "Со скоростью звука"
01. Роль в кино
02. Камера, свет, мотор
03. Новое изобретение
04. Встреча с мэром
05. Обманывать нехорошо
06. Суперпоезд под прикрытием

Диск № 5 "Клик Клак"
01. Время ремонта
02. Мастер на все руки
03. Динозавр в городе
04. Специальный корреспондент
05. Игра

Диск № 6 "Снова в путь"
01. Новый друг
02. Маскировка
03. Помощники Фростини
04. Новый учитель
05. Магнит Уилсона
06. Брюстер снимает кино

Внимание! Раздача ведётся путём добавления новых серий; при каждом добавлении создаётся новый торрент-файл. Чтобы начать докачку новой серии, пользователям необходимо сделать следующее:
(1) остановить скачивание;
(2) удалить старый торрент-файл у себя из клиента (старые серии удалять не надо);
(3) скачать новый торрент-файл и запустить его у себя в клиенте вместо старого, при этом указать клиенту путь в старую папку куда и должно происходить скачивание новых серий.
Ваш клиент при этом должен произвести хеширование (проверку) старой папки (если он не производит проверку сам – помогите ему сделать это), и будет докачивать только те серии которых у вас ещё нет. Старые серии при этом не удаляются, а продолжают раздаваться!
Если вы уже удалили старые серии, то предотвратить повторную закачку старых серий можно, отжав галочку в соответствующих местах при запуске нового торрент-файла. Желательно старые серии не удалять как можно дольше, чтобы релизёр не столько продолжал раздавать старые серии, а смог сконцентрироваться на новых.

Общее
Полное имя : Chaggington.Veselye.parovoziki.D.DVDRip_[New-Team]_by_avprohD6\04.avi
Формат : AVI
Формат/Информация : Audio Video Interleave
Размер файла : 157 Мбайт
Продолжительность : 10 м.
Общий поток : 2200 Кбит/сек
Программа кодирования : VirtualDubModRus 1.5.10.2 (build 2542/release)
Библиотека кодирования : VirtualDubMod build 2542/release

Видео
Идентификатор : 0
Формат : MPEG-4 Visual
Профиль формата : Advanced Simple@L5
Параметр BVOP формата : 1
Параметр QPel формата : Нет
Параметр GMC формата : Без точки перехода
Параметр матрицы формата : Выборочная
Идентификатор кодека : XVID
Идентификатор кодека/Подсказка : XviD
Продолжительность : 10 м.
Битрейт : 1999 Кбит/сек
Ширина : 720 пикселей
Высота : 544 пикселя
Соотношение сторон : 4:3
Частота кадров : 25,000 кадров/сек
Цветовое пространство : YUV
Субдискретизация насыщенности : 4:2:0
Битовая глубина : 8 бит
Тип развёртки : Прогрессивная
Метод сжатия : С потерями
Бит/(Пиксели*Кадры) : 0.204
Размер потока : 143 Мбайт (91%)
Библиотека кодирования : XviD 73

Аудио
Идентификатор : 1
Формат : AC-3
Формат/Информация : Audio Coding 3
Расширение режима : CM (complete main)
Параметр Endianness формата : Big
Идентификатор кодека : 2000
Продолжительность : 10 м.
Вид битрейта : Постоянный
Битрейт : 192 Кбит/сек
Каналы : 2 канала
Расположение каналов : Front: L R
Частота : 48,0 КГц
Битовая глубина : 16 бит
Метод сжатия : С потерями
Размер потока : 13,7 Мбайт (9%)
Выравнивание : Разделение по промежуткам
Продолжительность промежутка : 40 мс. (1,00 видеокадр)
Время предзагрузки промежутка : 500 мс.





   Похожие торренты   Торрент   Размер 
В этой теме нет новых непрочитанных сообщений. Чаггингтон: Веселые паровозики / Chuggington [01-29 из 29] (2012-2013) 5xDVD5 R5 от New-Team | D | лицензия

9 | 5

14.09 ГБ

В этой теме нет новых непрочитанных сообщений. Чаггингтон: Веселые паровозики / Chuggington [S01-04: 01-118 из 118] (2008-2014) DVDRip, BDRip от New-Team | D | лицензия

205 | 77

17.85 ГБ

В этой теме нет новых непрочитанных сообщений. Чаггингтон: Веселые паровозики / Chuggington [S01-04: 01-118 из 118] (2008-2014) DVDRip-AVC, BDRip-AVC от New-Team | D | лицензия

185 | 196

16.76 ГБ

В этой теме нет новых непрочитанных сообщений. Чаггингтон: Веселые паровозики / Chuggington [S01-03: 01-92 из 92] (2008-2011) DVDRip, BDRip от New-Team | D | лицензия

308 | 108

14.2 ГБ

В этой теме нет новых непрочитанных сообщений. Чаггингтон: Веселые паровозики / Chuggington [S01-03: 01-92 из 92] (2008-2011) DVDRip-AVC, BDRip-AVC от New-Team | D | лицензия

522 | 240

13.03 ГБ

В этой теме нет новых непрочитанных сообщений. Чаггингтон: Веселые паровозики / Chuggington [S01-03: 01-92 из 92] (2008-2011) 15xDVD5 R5 от New-Team | D | лицензия

26 | 12

43.93 ГБ

В этой теме нет новых непрочитанных сообщений. Чаггингтон: Веселые паровозики / Chuggington [S01-02] (2008-2011) DVDRip | D

237 | 122

11.65 ГБ




Вы не можете начинать темы
Вы не можете отвечать на сообщения
Вы не можете редактировать свои сообщения
Вы не можете удалять свои сообщения
Вы не можете добавлять вложения

Перейти:  
Для Мосгорсуда, Роскомнадзора и рекламодателей: mosgorsud-torrent[собачка]yandex.ru
 Вход
ppkBB3cker v.2 © 2008-2014 @ PPK
[ Time : 0.512s | 14 Queries | GZIP : Off ]

Торрент трекер RUTOR.IN, Не можете зайти на rutor.org? Какой новый адрес рутор? Какое зеркало рутор? Не работает rutor.org и зеркала? Тогда наш торрент специально для вас. Rutor.in неофициальное зеркало rutor. В случае если у Вас заблокирован rutor или вдруг Вы не можете на него зайти, то Вы без труда сможете скачать бесплатно и без рекламы последние новинки кино, игр, сериалов и прочего у нас, на Rutor.in. Не нужно использовать прокси, чтобы зайти на рутор, достаточно воспользоваться нашим ресурсом. Все новые фильмы, игры, сериалы, книги и музыка за 2013 и 2014 годы через торрент бесплатно. Скачивайте фильмы в хорошем качестве, игры для пк, xbox, playstation без регистрации. У нас вы найдете новые Зарубежные сериалы и Русские сериалы 2013, 2014, 2015 годов. Оставайтесь с нами, качайте любимые фильмы, игры, сериалы, книги и музыку.