img image001 image001 image001 image001 image001 image001 image001 image001 image001 image001 image001 image001 image001 image001 image001

Planets Sun Sun Sun
Статистика раздачи
Автор: PriZraK | Размер: 28.9 ГБ | Добавлен: 15 фев 2014
Раздают: 21    Качают: 5
Скачать торрент
Скачать торрент
Описание торрента

СообщениеДобавлено: 15 фев 2014 




Информация о фильме

Название: Эпик
Оригинальное название: Epic
Год выпуска: 2013
Жанр: Мультфильм, фэнтези, приключения, семейный, полнометражный
Выпущено: США, 20th Century Fox Animation, Blue Sky Studios
Режиссер: Крис Уэдж
В ролях: Джош Хатчерсон, Аманда Сайфред, Колин Фаррелл, Джейсон Судейкис, Азиз Ансари, Бейонсе Ноулз, Джонни Ноксвилл, Джуда Фридлендер, Блейк Андерсон, Кристоф Вальц, Стивен Тайлер, Питбулл, Джейсон Харрис, Эмма Кинни

О фильме: Вы никогда не задумывались о том, что за порогом вашего дома, в самом обыкновенном саду, может кипеть настоящая жизнь со злодеями, храбрецами, тайнами и магией? Что злобная мерзкая паучиха творит козни всем обитателям зеленого королевства, чтобы ухоженный благоухающий сад превратился в сухой хворост да серую пыль?


Файл

Качество: Blu-Ray Remux (1080p)
Видео: MPEG-4 AVC, 27.9 Мбит/с, 1920x1080, 23.976 кадр/с
Аудио: Русский (DTS, 6 ch, 768 Кбит/с), (DTS-HD MA, 8 ch, 4979 Кбит/с), латышский, литовский, эстонский, украинский (AC3, 6 ch, 448 Кбит/с), английский (DTS-HD MA, 8 ch, 4912 Кбит/с)
Размер: 28.9 ГБ
Продолжительность: 01:42:29
Перевод: Дублированный, авторский одноголосый (А.Гаврилов)
Субтитры: Русские, латышские, литовские, эстонские, украинские, английские
За исходник, большое спасибо АДмин & BLUEBIRD
За перевод А. Гаврилова, большое спасибо пользователям HDTRACKER :
therox, Xerman13, shitman82, kinobbk, _MyxAmoP_, SavineX, Brown15, foxlight, mamachucha66, -Джосс-, rydanes, dunhill200, Chistobaev, lexal, karantin66, Vimann, chef&chef, olegsoleg, Role, nimph, Guyver, v111o, KpucTo161, ASUKEVICH, Диммон, Pain_70, overdose, carter64, Slimka, furria62, hulahup, phaeton77.

Сохранены оригинальные чаптеры как на Blu-Ray
Общее
Уникальный идентификатор : 180485916963886506612378285946706958248 (0x87C852BD5F568789A0026E8D964D97A8)
Полное имя : C:ЗагрузкиEpic.2013.BDRemux.(1080p.).ExKinoRay.mkv
Формат : Matroska
Версия формата : Version 2
Размер файла : 28,9 Гбайт
Продолжительность : 1 ч. 42 м.
Режим общего битрейта : Переменный
Общий поток : 40,4 Мбит/сек
Название фильма : Эпик. 2013. Сборка: ollan
Дата кодирования : UTC 2013-12-28 01:44:34
Программа кодирования : mkvmerge v5.6.0 ('Kenya Kane') built on May 27 2012 16:44:04
Библиотека кодирования : libebml v1.2.3 + libmatroska v1.3.0

Видео
Идентификатор : 1
Формат : AVC
Формат/Информация : Advanced Video Codec
Профиль формата : High@L4.1
Параметр CABAC формата : Да
Параметр ReFrames формата : 4 кадра
Идентификатор кодека : V_MPEG4/ISO/AVC
Продолжительность : 1 ч. 42 м.
Вид битрейта : Переменный
Максимальный битрейт : 30,5 Мбит/сек
Ширина : 1920 пикселей
Высота : 1080 пикселей
Соотношение сторон : 16:9
Режим частоты кадров : Постоянный
Частота кадров : 23,976 кадра/сек
Цветовое пространство : YUV
Субдискретизация насыщенности : 4:2:0
Битовая глубина : 8 бит
Тип развёртки : Прогрессивная
Default : Да
Forced : Нет

Аудио #1
Идентификатор : 2
Формат : DTS
Формат/Информация : Digital Theater Systems
Режим : 16
Параметр Endianness формата : Big
Идентификатор кодека : A_DTS
Продолжительность : 1 ч. 42 м.
Вид битрейта : Постоянный
Битрейт : 768 Кбит/сек
Каналы : 6 каналов
Расположение каналов : Front: L C R, Side: L R, LFE
Частота : 48,0 КГц
Битовая глубина : 24 бит
Метод сжатия : С потерями
Размер потока : 563 Мбайт (2%)
Язык : Russian
Default : Да
Forced : Да

Аудио #2
Идентификатор : 3
Формат : AC-3
Формат/Информация : Audio Coding 3
Расширение режима : CM (complete main)
Параметр Endianness формата : Big
Идентификатор кодека : A_AC3
Продолжительность : 1 ч. 42 м.
Вид битрейта : Постоянный
Битрейт : 448 Кбит/сек
Каналы : 6 каналов
Расположение каналов : Front: L C R, Side: L R, LFE
Частота : 48,0 КГц
Битовая глубина : 16 бит
Метод сжатия : С потерями
Размер потока : 328 Мбайт (1%)
Язык : Latvian
Default : Нет
Forced : Нет

Аудио #3
Идентификатор : 4
Формат : AC-3
Формат/Информация : Audio Coding 3
Расширение режима : CM (complete main)
Параметр Endianness формата : Big
Идентификатор кодека : A_AC3
Продолжительность : 1 ч. 42 м.
Вид битрейта : Постоянный
Битрейт : 448 Кбит/сек
Каналы : 6 каналов
Расположение каналов : Front: L C R, Side: L R, LFE
Частота : 48,0 КГц
Битовая глубина : 16 бит
Метод сжатия : С потерями
Размер потока : 328 Мбайт (1%)
Язык : Lithuanian
Default : Нет
Forced : Нет

Аудио #4
Идентификатор : 5
Формат : AC-3
Формат/Информация : Audio Coding 3
Расширение режима : CM (complete main)
Параметр Endianness формата : Big
Идентификатор кодека : A_AC3
Продолжительность : 1 ч. 42 м.
Вид битрейта : Постоянный
Битрейт : 448 Кбит/сек
Каналы : 6 каналов
Расположение каналов : Front: L C R, Side: L R, LFE
Частота : 48,0 КГц
Битовая глубина : 16 бит
Метод сжатия : С потерями
Размер потока : 328 Мбайт (1%)
Язык : Estonian
Default : Нет
Forced : Нет

Аудио #5
Идентификатор : 6
Формат : AC-3
Формат/Информация : Audio Coding 3
Расширение режима : CM (complete main)
Параметр Endianness формата : Big
Идентификатор кодека : A_AC3
Продолжительность : 1 ч. 42 м.
Вид битрейта : Постоянный
Битрейт : 448 Кбит/сек
Каналы : 6 каналов
Расположение каналов : Front: L C R, Side: L R, LFE
Частота : 48,0 КГц
Битовая глубина : 16 бит
Метод сжатия : С потерями
Размер потока : 328 Мбайт (1%)
Язык : Ukrainian
Default : Нет
Forced : Нет

Аудио #6
Идентификатор : 7
Формат : DTS
Формат/Информация : Digital Theater Systems
Профиль формата : MA / Core
Режим : 16
Параметр Endianness формата : Big
Идентификатор кодека : A_DTS
Продолжительность : 1 ч. 42 м.
Вид битрейта : Переменный
Битрейт : Неизвестно / 1509 Кбит/сек
Каналы : 8 каналов / 6 каналов
Расположение каналов : Front: L C R, Side: L R, Back: L R, LFE / Front: L C R, Side: L R, LFE
Частота : 48,0 КГц
Битовая глубина : 24 бит
Метод сжатия : Без потерь / Lossy
Заголовок : Авторский одноголосый (Гаврилов)
Язык : Russian
Default : Нет
Forced : Нет

Аудио #7
Идентификатор : 8
Формат : DTS
Формат/Информация : Digital Theater Systems
Профиль формата : MA / Core
Режим : 16
Параметр Endianness формата : Big
Идентификатор кодека : A_DTS
Продолжительность : 1 ч. 42 м.
Вид битрейта : Переменный
Битрейт : Неизвестно / 1509 Кбит/сек
Каналы : 8 каналов / 6 каналов
Расположение каналов : Front: L C R, Side: L R, Back: L R, LFE / Front: L C R, Side: L R, LFE
Частота : 48,0 КГц
Битовая глубина : 24 бит
Метод сжатия : Без потерь / Lossy
Язык : English
Default : Нет
Forced : Нет

Текст #1
Идентификатор : 9
Формат : UTF-8
Идентификатор кодека : S_TEXT/UTF8
Идентификатор кодека/Информация : UTF-8 Plain Text
Язык : Russian
Default : Нет
Forced : Нет

Текст #2
Идентификатор : 10
Формат : UTF-8
Идентификатор кодека : S_TEXT/UTF8
Идентификатор кодека/Информация : UTF-8 Plain Text
Язык : Latvian
Default : Нет
Forced : Нет

Текст #3
Идентификатор : 11
Формат : UTF-8
Идентификатор кодека : S_TEXT/UTF8
Идентификатор кодека/Информация : UTF-8 Plain Text
Язык : Lithuanian
Default : Да
Forced : Нет

Текст #4
Идентификатор : 12
Формат : UTF-8
Идентификатор кодека : S_TEXT/UTF8
Идентификатор кодека/Информация : UTF-8 Plain Text
Язык : Estonian
Default : Нет
Forced : Нет

Текст #5
Идентификатор : 13
Формат : UTF-8
Идентификатор кодека : S_TEXT/UTF8
Идентификатор кодека/Информация : UTF-8 Plain Text
Язык : Ukrainian
Default : Нет
Forced : Нет

Текст #6
Идентификатор : 14
Формат : UTF-8
Идентификатор кодека : S_TEXT/UTF8
Идентификатор кодека/Информация : UTF-8 Plain Text
Заголовок : English
Язык : English
Default : Нет
Forced : Нет

Меню
00:00:00.000 : :Chapter 01
00:04:48.204 : :Chapter 03
00:09:49.589 : :Chapter 05
00:13:05.534 : :Chapter 07
00:16:50.050 : :Chapter 09
00:20:36.193 : :Chapter 11
00:24:09.489 : :Chapter 13
00:28:17.237 : :Chapter 15
00:31:31.848 : :Chapter 17
00:34:06.586 : :Chapter 19
00:38:21.590 : :Chapter 21
00:43:17.428 : :Chapter 23
00:44:58.028 : :Chapter 25
00:47:04.738 : :Chapter 27
00:49:07.944 : :Chapter 29
00:52:40.699 : :Chapter 31
00:56:28.885 : :Chapter 33
00:59:52.213 : :Chapter 35
01:03:27.386 : :Chapter 37
01:07:48.939 : :Chapter 39
01:14:36.472 : :Chapter 41
01:18:24.950 : :Chapter 43
01:20:13.099 : :Chapter 45
01:24:03.038 : :Chapter 47
01:25:19.280 : :Chapter 49
01:27:34.040 : :Chapter 51
01:32:05.520 : :Chapter 53
01:34:12.480 : :Chapter 55
01:42:28.892 : :Chapter 57






Релиз от: Сборка:



   Похожие торренты   Торрент   Размер 
В этой теме нет новых непрочитанных сообщений. Эпик / Epic (2013) BDRemux от Neofilm | iTunes Russia

4 | 2

23.75 ГБ

В этой теме нет новых непрочитанных сообщений. Эпик / Epic (2013) BDRip-AVC от ExKinoRay | iTunes Russia

41 | 5

2.26 ГБ

В этой теме нет новых непрочитанных сообщений. Эпик / Epic (2013) BDRip от New-Team | D | Лицензия

1568 | 114

1.45 ГБ

В этой теме нет новых непрочитанных сообщений. Эпик / Epic (2013) BDRip от New-Team | D | Лицензия

110 | 20

744.62 МБ

В этой теме нет новых непрочитанных сообщений. Эпик / Epic (2013) Blu-Ray 1080p | iTunes Russia

0 | 2

39.94 ГБ

В этой теме нет новых непрочитанных сообщений. Эпик / Epic (2013) BDRip 1080p | iTunes Russia

53 | 7

6.57 ГБ

В этой теме нет новых непрочитанных сообщений. Эпик / Epic (2013) BDRip 1080p | 3D-Video | halfOU | iTunes

51 | 8

6.04 ГБ




Вы не можете начинать темы
Вы не можете отвечать на сообщения
Вы не можете редактировать свои сообщения
Вы не можете удалять свои сообщения
Вы не можете добавлять вложения

Перейти:  
Для Мосгорсуда, Роскомнадзора и рекламодателей: mosgorsud-torrent[собачка]yandex.ru
 Вход
ppkBB3cker v.2 © 2008-2014 @ PPK
[ Time : 0.105s | 14 Queries | GZIP : Off ]

Торрент трекер RUTOR.IN, Не можете зайти на rutor.org? Какой новый адрес рутор? Какое зеркало рутор? Не работает rutor.org и зеркала? Тогда наш торрент специально для вас. Rutor.in неофициальное зеркало rutor. В случае если у Вас заблокирован rutor или вдруг Вы не можете на него зайти, то Вы без труда сможете скачать бесплатно и без рекламы последние новинки кино, игр, сериалов и прочего у нас, на Rutor.in. Не нужно использовать прокси, чтобы зайти на рутор, достаточно воспользоваться нашим ресурсом. Все новые фильмы, игры, сериалы, книги и музыка за 2013 и 2014 годы через торрент бесплатно. Скачивайте фильмы в хорошем качестве, игры для пк, xbox, playstation без регистрации. У нас вы найдете новые Зарубежные сериалы и Русские сериалы 2013, 2014, 2015 годов. Оставайтесь с нами, качайте любимые фильмы, игры, сериалы, книги и музыку.