img image001 image001 image001 image001 image001 image001 image001 image001 image001 image001 image001 image001 image001 image001 image001

Planets Sun Sun Sun
Статистика раздачи
Автор: PriZraK | Размер: 4.72 ГБ | Добавлен: 15 фев 2014
Раздают: 9    Качают: 3
Скачать торрент
Скачать торрент
Описание торрента

СообщениеДобавлено: 15 фев 2014 




Информация о фильме
Название: Путешествие на запад
Оригинальное название: Go West: A Lucky Luke Adventure / Tous à l'Ouest: Une aventure de Lucky Luke
Год выхода: 2007
Жанр: комедия, приключения, вестерн, мультфильм
Режиссер: Оливер Жан Мари
В ролях:
Ламбер Вильсон, Кловис Корнийяк, Франсуа Морел, Бернар Алан, Edgar Givry, Микаэль Лонсдаль, Титофф
Жан Пиа, Eric Métayer, Ди Ди Бриджуотер

О фильме:
Нью-Йорк, 1855 год. Знаменитым преступникам братьям Далтонам придется в очередной раз предстать перед судом. Однако четверо негодяев сбегают и начинают один за одним грабить городские банки. После сумасшедшего преследования бандитов по всей Америке Счастливчику Люку удается арестовать Далтонов, однако Джо Далтон умудряется незаметно припрятать награбленное в фургоне поселенцев, которым за 80 дней необходимо добраться до Калифорнии, чтобы занять землю. Ковбой Люк соглашается помочь поселенцам преодолеть все трудности Дикого Запада, а заодно сопроводить в тюрьму и братьев Далтонов. Однако у тех на уме другое — она разрабатывают план, как заполучить награбленное назад…

Гран-при немецкого фонда помощи детям на Берлинском кинофестивале, 2008г.

y4m [info]: 1920x1040p 1:1 @ 24000/1001 fps (cfr)
x264 [info]: using SAR=1/1
x264 [info]: using cpu capabilities: MMX2 SSE2Fast SSSE3 FastShuffle SSE4.2 AVX
x264 [info]: profile High, level 4.1
x264 [info]: frame I:1098 Avg QP:10.59 size:440514
x264 [info]: frame P:36357 Avg QP:16.15 size: 51916
x264 [info]: frame B:87208 Avg QP:18.90 size: 16304
x264 [info]: consecutive B-frames: 5.9% 7.5% 13.6% 44.9% 13.1% 7.4% 1.9% 1.1% 0.9% 0.7% 0.5% 0.9% 0.5% 1.1%
x264 [info]: mb I I16..4: 15.9% 32.1% 52.0%
x264 [info]: mb P I16..4: 1.9% 4.2% 3.8% P16..4: 14.3% 11.2% 5.8% 0.0% 0.0% skip:58.8%
x264 [info]: mb B I16..4: 0.5% 0.9% 0.6% B16..8: 12.5% 6.0% 1.7% direct: 1.9% skip:75.9% L0:41.7% L1:47.2% BI:11.1%
x264 [info]: 8x8 transform intra:41.0% inter:34.5%
x264 [info]: coded y,uvDC,uvAC intra: 64.4% 68.7% 58.3% inter: 7.7% 7.1% 4.4%
x264 [info]: i16 v,h,dc,p: 71% 16% 7% 6%
x264 [info]: i8 v,h,dc,ddl,ddr,vr,hd,vl,hu: 15% 17% 17% 7% 7% 7% 9% 8% 13%
x264 [info]: i4 v,h,dc,ddl,ddr,vr,hd,vl,hu: 19% 17% 17% 7% 9% 7% 8% 7% 9%
x264 [info]: i8c dc,h,v,p: 38% 36% 19% 7%
x264 [info]: Weighted P-Frames: Y:2.8% UV:2.0%
x264 [info]: ref P L0: 58.5% 5.7% 22.3% 10.7% 2.8% 0.1%
x264 [info]: ref B L0: 82.5% 13.5% 4.1%
x264 [info]: ref B L1: 91.0% 9.0%
x264 [info]: kb/s:5835.98

encoded 124663 frames, 6.09 fps, 5835.98 kb/s
x264 [info]: ended at Mon Apr 09 11:47:51 2012

General
Unique ID : 194939020477806834472506841716546777059 (0x92A7E3C283277686BAA3D7772BBEAFE3)
Complete name : Tous.a.l'Ouest.Une.aventure.de.Lucky.Luke.2007.1080p.BluRay.Rus.Fre.HDCLUB-Skazhutin.mkv
Format : Matroska
Format version : Version 2
File size : 4.72 GiB
Duration : 1h 26mn
Overall bit rate : 7 796 Kbps
Movie name : Tous à l'Ouest: Une aventure de Lucky Luke (2007) - Release for HDCLUB by Skazhutin
Encoded date : UTC 2012-04-09 06:27:03
Writing application : mkvmerge v5.5.0 ('Healer') built on Apr 6 2012 21:43:24
Writing library : libebml v1.2.3 + libmatroska v1.3.0
Attachment : Yes / Yes

Video
ID : 1
Format : AVC
Format/Info : Advanced Video Codec
Format profile : High@L4.1
Format settings, CABAC : Yes
Format settings, ReFrames : 4 frames
Codec ID : V_MPEG4/ISO/AVC
Duration : 1h 26mn
Bit rate : 5 683 Kbps
Width : 1 920 pixels
Height : 1 040 pixels
Display aspect ratio : 16:9
Frame rate : 23.976 fps
Color space : YUV
Chroma subsampling : 4:2:0
Bit depth : 8 bits
Scan type : Progressive
Bits/(Pixel*Frame) : 0.119
Stream size : 3.44 GiB (73%)
Title : Release for HDCLUB
Writing library : x264 core 122 r2184kMod 5c85e0a
Encoding settings : cabac=1 / ref=4 / deblock=1:-1:-1 / analyse=0x3:0x113 / me=umh / subme=11 / psy=1 / fade_compensate=0.00 / psy_rd=0.60:0.00 / mixed_ref=1 / me_range=48 / chroma_me=1 / trellis=2 / 8x8dct=1 / cqm=0 / deadzone=21,11 / fast_pskip=1 / chroma_qp_offset=-2 / threads=12 / sliced_threads=0 / nr=0 / decimate=1 / interlaced=0 / bluray_compat=0 / constrained_intra=0 / bframes=13 / b_pyramid=2 / b_adapt=2 / b_bias=0 / direct=1 / weightb=1 / open_gop=0 / weightp=2 / keyint=250 / keyint_min=23 / scenecut=40 / intra_refresh=0 / rc_lookahead=60 / rc=crf / mbtree=1 / crf=15.5000 / qcomp=0.80 / qpmin=0 / qpmax=69 / qpstep=4 / vbv_maxrate=50000 / vbv_bufsize=62500 / crf_max=0.0 / nal_hrd=none / ip_ratio=1.40 / aq=1:0.65
Language : French
Default : Yes
Forced : No
Matrix coefficients : BT.709-5, BT.1361, IEC 61966-2-4 709, SMPTE RP177

Audio #1
ID : 2
Format : AC-3
Format/Info : Audio Coding 3
Mode extension : CM (complete main)
Codec ID : A_AC3
Duration : 1h 26mn
Bit rate mode : Constant
Bit rate : 448 Kbps
Channel(s) : 6 channels
Channel positions : Front: L C R, Side: L R, LFE
Sampling rate : 48.0 KHz
Bit depth : 16 bits
Compression mode : Lossy
Stream size : 278 MiB (6%)
Title : AC3 5.1 @ 448 kbps - Многоголосый
Language : Russian
Default : Yes
Forced : No

Audio #2
ID : 3
Format : DTS
Format/Info : Digital Theater Systems
Codec ID : A_DTS
Duration : 1h 26mn
Bit rate mode : Constant
Bit rate : 1 510 Kbps
Channel(s) : 6 channels
Channel positions : Front: L C R, Side: L R, LFE
Sampling rate : 48.0 KHz
Bit depth : 24 bits
Compression mode : Lossy
Stream size : 936 MiB (19%)
Title : DTS 5.1 @ 1536 kbps
Language : French
Default : No
Forced : No

Menu
00:00:00.000 : en:Chapter 1
00:10:02.852 : en:Chapter 2
00:15:06.530 : en:Chapter 3
00:21:56.272 : en:Chapter 4
00:28:56.651 : en:Chapter 5
00:32:45.296 : en:Chapter 6
00:40:09.073 : en:Chapter 7
00:45:36.525 : en:Chapter 8
00:53:56.190 : en:Chapter 9
01:01:39.487 : en:Chapter 10
01:12:16.874 : en:Chapter 11
01:22:11.301 : en:Chapter 12



Страна: Франция
Продолжительность: 01:26:39
Перевод: Профессиональный (многоголосый закадровый)

Файл
Кодек: x264
Качество: BDRip 1080p
Видео: 1920x1040 at 23.976 fps, x264@L4.1, crf, ~5836 kbps avg
Звук:
Аудио 1: Russian: 48 kHz, AC3, 3/2 (L,C,R,l,r) + LFE ch, ~448.00 kbps avg |Многоголосый закадровый|
Аудио 2: French: 48 kHz, DTS, 3/2 (L,C,R,l,r) + LFE ch, ~1536.00 kbps avg





Релиз от: by Skazhutin
Сохранены оригинальные чаптеры как на Blu-ray.
Спасибо Dreamcatcher за исходник.



   Похожие торренты   Торрент   Размер 
В этой теме нет новых непрочитанных сообщений. Путешествие на запад / Go West: A Lucky Luke Adventure / Tous a l'Ouest: Une aventure de Lucky Luke (2007) BDRip от HELLYWOOD

6 | 5

1.46 ГБ

В этой теме нет новых непрочитанных сообщений. Путешествие на запад / Go West: A Lucky Luke Adventure / Tous a l'Ouest: Une aventure de Lucky Luke (2007) BDRip от HQCLUB

19 | 3

1.45 ГБ

В этой теме нет новых непрочитанных сообщений. Путешествие на запад / Go West: A Lucky Luke Adventure / Tous a l'Ouest: Une aventure de Lucky Luke (2007) BDRip 720p

4 | 2

3.38 ГБ

В этой теме нет новых непрочитанных сообщений. Путешествие на запад / Go West: A Lucky Luke Adventure / Tous a l'Ouest: Une aventure de Lucky Luke (2007) BDRip-AVC | iPad

7 | 2

1.19 ГБ

В этой теме нет новых непрочитанных сообщений. Путешествие на запад / Go West: A Lucky Luke Adventure / Tous à l'Ouest: Une aventure de Lucky Luke (2007) DVD5 от New-Team | P | Лицензия

17 | 16

4.38 ГБ

В этой теме нет новых непрочитанных сообщений. Неуловимый Люк / Lucky Luke (2009) BDRip 1080p от FireBit

1 | 2

7.28 ГБ

В этой теме нет новых непрочитанных сообщений. Неуловимый Люк / Lucky Luke (2009) BDRip от Rulya74

22 | 5

2.05 ГБ




Вы не можете начинать темы
Вы не можете отвечать на сообщения
Вы не можете редактировать свои сообщения
Вы не можете удалять свои сообщения
Вы не можете добавлять вложения

Перейти:  
Для Мосгорсуда, Роскомнадзора и рекламодателей: mosgorsud-torrent[собачка]yandex.ru
 Вход
ppkBB3cker v.2 © 2008-2014 @ PPK
[ Time : 2.748s | 15 Queries | GZIP : Off ]

Торрент трекер RUTOR.IN, Не можете зайти на rutor.org? Какой новый адрес рутор? Какое зеркало рутор? Не работает rutor.org и зеркала? Тогда наш торрент специально для вас. Rutor.in неофициальное зеркало rutor. В случае если у Вас заблокирован rutor или вдруг Вы не можете на него зайти, то Вы без труда сможете скачать бесплатно и без рекламы последние новинки кино, игр, сериалов и прочего у нас, на Rutor.in. Не нужно использовать прокси, чтобы зайти на рутор, достаточно воспользоваться нашим ресурсом. Все новые фильмы, игры, сериалы, книги и музыка за 2013 и 2014 годы через торрент бесплатно. Скачивайте фильмы в хорошем качестве, игры для пк, xbox, playstation без регистрации. У нас вы найдете новые Зарубежные сериалы и Русские сериалы 2013, 2014, 2015 годов. Оставайтесь с нами, качайте любимые фильмы, игры, сериалы, книги и музыку.
cron