img image001 image001 image001 image001 image001 image001 image001 image001 image001 image001 image001 image001 image001 image001 image001

Planets Sun Sun Sun
Статистика раздачи
Автор: PriZraK | Размер: 699.11 МБ | Добавлен: 15 фев 2014
Раздают: 26    Качают: 2
Скачать торрент
Скачать торрент
Описание торрента

СообщениеДобавлено: 15 фев 2014 


Информация о фильме
Название: Друзья навсегда
Оригинальное название: Mullewapp - Das große Kinoabenteuer der Freunde
Год выхода: 2009
Жанр: мультфильм, семейный
Режиссер: Тони Лойзер, Джеспер Мюллер
В ролях: Бенно Фюрман, Йоахим Круль, Кристоф Мария Хербст, Катарина Витт, Фолькер Вульф, Максимилиана Хёке, Ганс Байер, Ханс-Герд Килбингер, Рене Хейнердорфф, Хильдегард Крекель

О фильме:
Задорный и отважный мышонок Джонни вынужден смыться из города, попав в жуткую переделку. Он надеялся, что на сельской ферме, куда он попал, ему удастся перевести дух. Но не тут-то было, сюрпризы продолжаются! Его ждет компания новых веселых друзей и героические приключения на таинственном Волчьем острове…



Official Site

Страна: Германия, Италия, Франция
Студия: MotionWorks, Jugendfilm-Verleih, Westdeutscher Rundfunk (WDR), 2d3D Animations, Enanimation
Продолжительность: 01:16:40
Перевод: Профессиональный (дублированный)

Файл
Кодек: x264
Качество: HDRip-AVC
Видео: 704x384 (1.85:1), 23.976 fps, 888 kbps
Звук: AC-3, 384 kbps, 3/2 (L,C,R,l,r) + LFE ch, 48.0 kHz, CBR
Субтитры: нет

SAMPLE

Релиз от: dragomire

Общее
Уникальный идентификатор : 230898916167355712717470995623993192792 (0xADB583805B777BCD9533B467E5F4B158)
Полное имя : Druzja.navsegda.2009.HDRip.mkv
Формат : Matroska
Версия формата : Version 1
Размер файла : 699 Мбайт
Продолжительность : 1 ч. 16 м.
Общий поток : 1275 Кбит/сек
Дата кодирования : UTC 2010-06-10 14:40:36
Программа кодирования : mkvmerge v2.2.0 ('Turn It On Again') built on Mar 4 2008 12:58:26
Библиотека кодирования : libebml v0.7.7 + libmatroska v0.8.1

Видео
Идентификатор : 1
Формат : AVC
Формат/Информация : Advanced Video Codec
Профиль формата : High@L3.0
Параметр CABAC формата : Да
Параметр ReFrames формата : 6 кадров
Идентификатор кодека : V_MPEG4/ISO/AVC
Продолжительность : 1 ч. 16 м.
Битрейт : 888 Кбит/сек
Ширина : 704 пикселя
Высота : 384 пикселя
Соотношение сторон : 1,85:1
Режим частоты кадров : Постоянный
Частота кадров : 23,976 кадра/сек
Цветовое пространство : YUV
Субдискретизация насыщенности : 4:2:0
Битовая глубина : 8 бит
Тип развёртки : Прогрессивная
Бит/(Пиксели*Кадры) : 0.137
Размер потока : 475 Мбайт (68%)
Заголовок : Друзья навсегда / Mullewapp - Das groBe Kinoabenteuer der Freunde (2009) xLIVE
Библиотека кодирования : x264 core 80 r1376M 3feaec2
Настройки программы : cabac=1 / ref=6 / deblock=1:1:1 / analyse=0x3:0x133 / me=hex / subme=7 / psy=1 / psy_rd=0.4:0.0 / mixed_ref=1 / me_range=16 / chroma_me=1 / trellis=1 / 8x8dct=1 / cqm=0 / deadzone=21,11 / fast_pskip=0 / chroma_qp_offset=-2 / threads=3 / sliced_threads=0 / nr=0 / decimate=1 / mbaff=0 / constrained_intra=0 / bframes=8 / b_pyramid=2 / b_adapt=1 / b_bias=0 / direct=2 / wpredb=1 / wpredp=2 / keyint=250 / keyint_min=25 / scenecut=40 / rc_lookahead=40 / rc=2pass / mbtree=1 / bitrate=888 / ratetol=0.6 / qcomp=0.60 / qpmin=10 / qpmax=51 / qpstep=4 / cplxblur=20.0 / qblur=0.5 / ip_ratio=1.40 / aq=1:0.60
Язык : Russian
Default : Да
Forced : Нет

Аудио
Идентификатор : 2
Формат : AC-3
Формат/Информация : Audio Coding 3
Расширение режима : CM (complete main)
Параметр Endianness формата : Big
Идентификатор кодека : A_AC3
Продолжительность : 1 ч. 16 м.
Вид битрейта : Постоянный
Битрейт : 384 Кбит/сек
Каналы : 6 каналов
Расположение каналов : Front: L C R, Side: L R, LFE
Частота : 48,0 КГц
Битовая глубина : 16 бит
Метод сжатия : С потерями
Размер потока : 211 Мбайт (30%)
Заголовок : DUB
Язык : Russian
Default : Да
Forced : Нет



   Похожие торренты   Торрент   Размер 
В этой теме нет новых непрочитанных сообщений. Друзья навсегда / Mullewapp - Das große Kinoabenteuer der Freunde (2009) DVDRip

2 | 2

701.49 МБ

В этой теме нет новых непрочитанных сообщений. Друзья навсегда / Mullewapp - Das große Kinoabenteuer der Freunde (2009) BDRip 720р

0 | 3

3.49 ГБ

В этой теме нет новых непрочитанных сообщений. Друзья навсегда / Большое киноприключение друзей / Mullewapp - Das große Kinoabenteuer der Freunde / Friends forever (2009) DVDRip

1 | 3

1.37 ГБ

В этой теме нет новых непрочитанных сообщений. Большой африканский разлом / Great Rift - Der grosse Graben [1-3 серии из 3] (2009) HDRip от AndrewWhite

161 | 3

2.05 ГБ

В этой теме нет новых непрочитанных сообщений. Пятеро друзей 2 / Funf Freunde 2 / Famous Five 2 (2013) HDRip | L1

182 | 33

1.46 ГБ

В этой теме нет новых непрочитанных сообщений. Космические друзья / Space Buddies (2009) HDRip

29 | 9

1.46 ГБ

В этой теме нет новых непрочитанных сообщений. Моя заветная мечта / Der ganz grosse Traum (2011) HDRip | L1

8 | 5

1.36 ГБ




Вы не можете начинать темы
Вы не можете отвечать на сообщения
Вы не можете редактировать свои сообщения
Вы не можете удалять свои сообщения
Вы не можете добавлять вложения

Перейти:  
Для Мосгорсуда, Роскомнадзора и рекламодателей: mosgorsud-torrent[собачка]yandex.ru
 Вход
ppkBB3cker v.2 © 2008-2014 @ PPK
[ Time : 0.026s | 15 Queries | GZIP : Off ]

cron