img image001 image001 image001 image001 image001 image001 image001 image001 image001 image001 image001 image001 image001 image001 image001

Planets Sun Sun Sun
Статистика раздачи
Автор: PriZraK | Размер: 1.48 ГБ | Добавлен: 15 фев 2014
Раздают: 244    Качают: 15
Скачать торрент
Скачать торрент
Описание торрента

СообщениеДобавлено: 15 фев 2014 




Информация о фильме
Название: ТуТиТу
Оригинальное название: TuTiTu
Год выхода: 2010-2013
Жанр: анимированный, обучающий, мультипликация
Режиссер: Йосси Дахан / Yossi Dahan, Тал Гамлиэль / Tal Gamliel

О фильме:
TuTiTu - это 3D-анимированный мультфильм, ориентированный на детей в возрасте от 2 до 3 лет. Благодаря красочной форме TuTiTu будет стимулировать детское воображение и креативность. В каждом эпизоде TuTiTu, будет превращаться в новые и захватывающие игрушки.

1. Train (Паровоз)
2. Tractor (Трактор)
3. Airplane (Самолёт)
4. Phone (Телефон)
5. Clock (Часы)
6. Elephant (Слон)
7. Bicycle (Велосипед)
8. Mobile (Игрушки)
9. Clown (Клоун)
10. Toy (Игрушка)
11. Carousel (Карусель)
12. Sublarine (Подводная лодка)
13. Boat (Лодка)
1. Jeep (Джип)
2. House (Дом)
3. Helicopter (Вертолёт)
4. Music Table (Оркестр)
5. Wooden Horse (Деревянная лошадь)
6. Ferris Wheel (Колесо обозрения)
7. Bus (Автобус)
8. Marble Race (Шарики)
9. Crocodile (Крокодил)
10. Robot (Робот)
11. Puppet theater (Кукольный театр)
12. Fire Truck (Пожарная машина)
13. Crane (Подъёмный кран)
1. Happy Birthday Cake (Торт)
2. Ice Cream (Мороженное)
3. Scooter (Скутер)
4. Rollercoaster (Американские горки)
5. Police Car (Полицейская машина)
6. Playground (Детская площадка)
7. Giraffe (Жираф)
8. Garbage Truck (Мусоровоз)
9. Race cars (Гоночные машинки)
10. Kitchen (Кухня)
11. Wooden blocks (Деревянные бруски)
12. Zeppelin (Дирижабль)
13. Windmill (Ветряная мельница)
1. Lawn mower (Газонокосилка)
2. Trampoline (Батут)
3. Ambulance (Скорая помощь)
4. Funicular (Фуникулер)
5. Palace (Дворец)
6. Teddy Bear (Плюшевый мишка)
7. Chocolate (Шоколад)
8. Wooden Cars (Деревянные машинки)
9. Lollipops (Конфета на палочке)
10. Doll Stroller (Коляска)
11. Tool Kit (Набор инструментов)
12. Jet ski (Водный мотоцикл)
13. Mobile Phone (Мобильный телефон)


Официальный сайт

Страна: Германия, Израиль
Продолжительность: ~ 03 минуты серия
Перевод: Професиональный (одноголосый закадровый)

Файл
Кодек: AVC / AAC
Качество: WEBRip-AVC 720p
Видео: AVC, 1280x720 (16:9), 25.000 fps, 1 048 Kbps (0.046 bit/pixel)
Звук: AAC LC, 44.1 KHz, 2 ch, 192 Kbps, VBR

General
Complete name : media/TutiTu Rus/s1/1. TuTiTu самолет (HD).mp4
Format : MPEG-4
Format profile : Base Media / Version 2
Codec ID : mp42
File size : 26.7 MiB
Duration : 3mn 0s
Overall bit rate mode : Variable
Overall bit rate : 1 243 Kbps
Encoded date : UTC 2012-11-21 11:37:10
Tagged date : UTC 2012-11-21 11:37:10
gsst : 0
gstd : 180255
gssd : B2E3D9B8AHH1363109776332201
gshh : r7---sn-gvnuxaxjvh-n8vs.c.youtube.com

Video
ID : 1
Format : AVC
Format/Info : Advanced Video Codec
Format profile : High@L3.1
Format settings, CABAC : Yes
Format settings, ReFrames : 1 frame
Format settings, GOP : M=1, N=60
Codec ID : avc1
Codec ID/Info : Advanced Video Coding
Duration : 3mn 0s
Bit rate : 1 048 Kbps
Maximum bit rate : 2 660 Kbps
Width : 1 280 pixels
Height : 720 pixels
Display aspect ratio : 16:9
Frame rate mode : Constant
Frame rate : 25.000 fps
Color space : YUV
Chroma subsampling : 4:2:0
Bit depth : 8 bits
Scan type : Progressive
Bits/(Pixel*Frame) : 0.046
Stream size : 22.5 MiB (84%)
Tagged date : UTC 2012-11-21 11:37:10

Audio
ID : 2
Format : AAC
Format/Info : Advanced Audio Codec
Format profile : LC
Codec ID : 40
Duration : 3mn 0s
Bit rate mode : Variable
Bit rate : 192 Kbps
Maximum bit rate : 201 Kbps
Channel(s) : 2 channels
Channel positions : Front: L R
Sampling rate : 44.1 KHz
Compression mode : Lossy
Stream size : 4.12 MiB (15%)
Title : IsoMedia File Produced by Google, 5-11-2011
Encoded date : UTC 2012-11-21 11:37:10
Tagged date : UTC 2012-11-21 11:37:10



   Похожие торренты   Торрент   Размер 
В этой теме нет новых непрочитанных сообщений. Trance - Подборка клипов (2010-2013) WEBRip 720p-1080p

20 | 2

3.18 ГБ

В этой теме нет новых непрочитанных сообщений. Банши: Предыстория / Banshee Origins [S01-03] (2013-2015) WEBRip 720p, HDTVRip 720p, WEBRip | L1

600 | 56

2.7 ГБ

В этой теме нет новых непрочитанных сообщений. Сборник клипов - 720p - россыпьююю. Часть 2 (2010-2011) WEBRip 720p

1 | 2

5.6 ГБ

В этой теме нет новых непрочитанных сообщений. +100500 [01-236] (2010-2013) WEBRip

274 | 108

20.69 ГБ

В этой теме нет новых непрочитанных сообщений. Кошачий Апокалипсис / Апокалипсис Мяу / Cat Shit One: The Animated Series [01x01 из 12] (2010) (2010) WebRip (720p)

1 | 3

349.56 МБ

В этой теме нет новых непрочитанных сообщений. Ганнибал / Hannibal [01х01-06, 09-12 из 13] (2013) WEB-DL 720p, WEBRip 720p, HDTVRip 720p | Kerob

1 | 2

9.37 ГБ

В этой теме нет новых непрочитанных сообщений. Грот - Иду на тепло (2010) WebRip HD 720p

7 | 4

42.75 МБ




Вы не можете начинать темы
Вы не можете отвечать на сообщения
Вы не можете редактировать свои сообщения
Вы не можете удалять свои сообщения
Вы не можете добавлять вложения

Перейти:  
Для Мосгорсуда, Роскомнадзора и рекламодателей: mosgorsud-torrent[собачка]yandex.ru
 Вход
ppkBB3cker v.2 © 2008-2014 @ PPK
[ Time : 0.044s | 15 Queries | GZIP : Off ]

cron