img image001 image001 image001 image001 image001 image001 image001 image001 image001 image001 image001 image001 image001 image001 image001

Planets Sun Sun Sun
Статистика раздачи
Автор: PriZraK | Размер: 1.67 ГБ | Добавлен: 15 фев 2014
Раздают: 208    Качают: 12
Скачать торрент
Скачать торрент
Описание торрента

СообщениеДобавлено: 15 фев 2014 




Информация о фильме
Название: Ронал-варвар
Оригинальное название: Ronal Barbaren
Год выхода: 2011
Жанр: мультфильм, фэнтези, приключения
Режиссер: Крестен Вестбьерг Андерсен, Торбьорн Кристофферсен, Филип Эйнштейн Липски
В ролях: Андерс Юль, Хади Ка-Куш, Лерке Винтер Андерсен, Брайан Лукке, Ларс Миккелсен, Питер Од, Ларс Бом, Оле Теструп, Пребен Кристенсен, Оле Эрнст

О фильме:
Ронал — самый нетипичный варвар на Земле. Его не интересуют ни битвы, ни завоевания, ни пиры. Больше всего на свете ему хочется, чтобы все просто оставили его в покое. Но судьба распоряжается иначе. Однажды злобный принц Вольказар, вождь враждебного племени, захватывает всех варваров в плен, чтобы принести их в жертву древним богам и обрести власть над миром. На свободе остается лишь Ронал. И теперь ему вместе с безалаберным бардом Алибером, мускулистой девой-воительницей Зандрой и эльфом-метросексуалом Эльриком предстоит пройти множество испытаний, чтобы освободить свой народ, обрести веру в себя и… найти любовь.



Страна: Дания
Студия: Det Danske Filminstitut, Einstein Film, Nordisk Film A/S, Nordisk Film-&TV-Fond, TV2 Danmark
Продолжительность: 01:29:17
Перевод: Дублированный, профессиональный (многоголосый закадровый)

Файл
Кодек: h.264
Качество: BDRip-AVC
Видео: 1657 Кбит/с, 1024x428, 23.976 кадр/с

Звук:
• №1: Русский (АС3, 6 ch, 384 Кбит/с) Дублированный
• №2: Русский (АС3, 6 ch, 256 Кбит/с) Профессиональный многоголосый [2 x 2]
• №3: Датский (АС3, 6 ch, 384 Кбит/с)

Субтитры: Русские, английские, датские

---------------------------------------------------------------------
x264 [info]: frame I:1193 Avg QP:15.17 size: 72836
x264 [info]: frame P:34503 Avg QP:18.80 size: 17143
x264 [info]: frame B:92733 Avg QP:20.65 size: 4647
---------------------------------------------------------------------

Полное имя : Ronal.the.Barbarian.2011.x264.BDRip-AVC.0ptimus.mkv
Формат : Matroska
Версия формата : Version 4 / Version 2
Размер файла : 1,67 Гбайт
Продолжительность : 1 ч. 29 м.
Общий поток : 2683 Кбит/сек
Название фильма : Ронал-варвар | Ronal Barbaren [2011] -=BDRip (AVC) by 0ptimus=-
Дата кодирования : UTC 2014-01-11 11:42:05
Программа кодирования : mkvmerge v6.6.0 ('The Edge Of The In Between') built on Dec 1 2013 17:55:00
Библиотека кодирования : libebml v1.3.0 + libmatroska v1.4.1

Видео
Идентификатор : 1
Формат : AVC
Формат/Информация : Advanced Video Codec
Профиль формата : High@L4.1
Параметр CABAC формата : Да
Параметр ReFrames формата : 9 кадров
Идентификатор кодека : V_MPEG4/ISO/AVC
Продолжительность : 1 ч. 29 м.
Битрейт : 1657 Кбит/сек
Ширина : 1024 пикселя
Высота : 428 пикселей
Соотношение сторон : 2,40:1
Режим частоты кадров : Постоянный
Частота кадров : 23,976 кадра/сек
Цветовое пространство : YUV
Субдискретизация насыщенности : 4:2:0
Битовая глубина : 8 бит
Тип развёртки : Прогрессивная
Бит/(Пиксели*Кадры) : 0.158
Размер потока : 1,00 Гбайт (60%)
Заголовок : Rip by 0ptimus
Библиотека кодирования : x264 core 133 r2334 a3ac64b
Настройки программы : cabac=1 / ref=9 / deblock=1:-3:-3 / analyse=0x3:0x113 / me=umh / subme=11 / psy=1 / psy_rd=1.00:0.20 / mixed_ref=1 / me_range=32 / chroma_me=1 / trellis=2 / 8x8dct=1 / cqm=0 / deadzone=21,11 / fast_pskip=0 / chroma_qp_offset=-3 / threads=3 / lookahead_threads=1 / sliced_threads=0 / nr=0 / decimate=0 / interlaced=0 / bluray_compat=0 / constrained_intra=0 / bframes=12 / b_pyramid=2 / b_adapt=2 / b_bias=0 / direct=3 / weightb=1 / open_gop=0 / weightp=2 / keyint=240 / keyint_min=23 / scenecut=40 / intra_refresh=0 / rc_lookahead=40 / rc=2pass / mbtree=0 / bitrate=1657 / ratetol=1.0 / qcomp=0.60 / qpmin=0 / qpmax=69 / qpstep=4 / cplxblur=20.0 / qblur=0.5 / vbv_maxrate=50000 / vbv_bufsize=50000 / nal_hrd=none / ip_ratio=1.40 / pb_ratio=1.30 / aq=1:1.00
Язык : English
Default : Да
Forced : Да

Аудио #1
Идентификатор : 2
Формат : AC-3
Формат/Информация : Audio Coding 3
Расширение режима : CM (complete main)
Параметр Endianness формата : Big
Идентификатор кодека : A_AC3
Продолжительность : 1 ч. 29 м.
Вид битрейта : Постоянный
Битрейт : 384 Кбит/сек
Каналы : 6 каналов
Расположение каналов : Front: L C R, Side: L R, LFE
Частота : 48,0 КГц
Битовая глубина : 16 бит
Метод сжатия : С потерями
Размер потока : 245 Мбайт (14%)
Заголовок : Дублированный AC3 5.1 @ 384 kbps
Язык : Russian
Default : Да
Forced : Да

Аудио #2
Идентификатор : 3
Формат : AC-3
Формат/Информация : Audio Coding 3
Расширение режима : CM (complete main)
Параметр Endianness формата : Big
Идентификатор кодека : A_AC3
Продолжительность : 1 ч. 29 м.
Вид битрейта : Постоянный
Битрейт : 256 Кбит/сек
Каналы : 6 каналов
Расположение каналов : Front: L C R, Side: L R, LFE
Частота : 48,0 КГц
Битовая глубина : 16 бит
Метод сжатия : С потерями
Размер потока : 163 Мбайт (10%)
Заголовок : Многоголосый закадровый [2 x 2] AC3 5.1 @ 256 kbps
Язык : Russian
Default : Нет
Forced : Нет

Аудио #3
Идентификатор : 4
Формат : AC-3
Формат/Информация : Audio Coding 3
Расширение режима : CM (complete main)
Параметр Endianness формата : Big
Идентификатор кодека : A_AC3
Продолжительность : 1 ч. 29 м.
Вид битрейта : Постоянный
Битрейт : 384 Кбит/сек
Каналы : 6 каналов
Расположение каналов : Front: L C R, Side: L R, LFE
Частота : 48,0 КГц
Битовая глубина : 16 бит
Метод сжатия : С потерями
Размер потока : 245 Мбайт (14%)
Заголовок : AC3 5.1 @ 384 kbps
Язык : Danish
Default : Нет
Forced : Нет

Текст #1
Идентификатор : 5
Формат : UTF-8
Идентификатор кодека : S_TEXT/UTF8
Идентификатор кодека/Информация : UTF-8 Plain Text
Язык : Russian
Default : Нет
Forced : Нет

Текст #2
Идентификатор : 6
Формат : UTF-8
Идентификатор кодека : S_TEXT/UTF8
Идентификатор кодека/Информация : UTF-8 Plain Text
Язык : English
Default : Нет
Forced : Нет

Текст #3
Идентификатор : 7
Формат : UTF-8
Идентификатор кодека : S_TEXT/UTF8
Идентификатор кодека/Информация : UTF-8 Plain Text
Язык : Danish
Default : Нет
Forced : Нет

Меню
00:00:00.000 : :Chapter 01
00:09:15.971 : :Chapter 02
00:15:16.791 : :Chapter 03
00:24:42.855 : :Chapter 04
00:31:34.308 : :Chapter 05
00:38:47.157 : :Chapter 06
00:47:34.351 : :Chapter 07
00:56:31.429 : :Chapter 08
01:02:02.427 : :Chapter 09
01:08:37.904 : :Chapter 10
01:16:10.899 : :Chapter 11
01:24:47.416 : :Chapter 12




Релиз от:



   Похожие торренты   Торрент   Размер 
В этой теме нет новых непрочитанных сообщений. Ронал-варвар / Ronal the Barbarian / Ronal Barbaren (2011) BDRip от HQCLUB

800 | 30

1.45 ГБ

В этой теме нет новых непрочитанных сообщений. Ронал-варвар / Ronal the Barbarian / Ronal Barbaren (2011) HDRip | КПК от Generalfilm

23 | 12

293.08 МБ

В этой теме нет новых непрочитанных сообщений. Ронал-варвар / Ronal Barbaren (2011) BDRip 1080p

169 | 13

4.98 ГБ

В этой теме нет новых непрочитанных сообщений. Ронал-варвар / Ronal Barbaren (2011) BDRip 1080p

331 | 14

2.19 ГБ

В этой теме нет новых непрочитанных сообщений. Ронал-варвар / Ronal Barbaren (2011) BDRip от HELLYWOOD

55 | 5

1.45 ГБ

В этой теме нет новых непрочитанных сообщений. Ронал-варвар / Ronal Barbaren (2011) BDRip 720p

34 | 6

1.44 ГБ

В этой теме нет новых непрочитанных сообщений. Ронал-варвар / Ronal Barbaren (2011) BDRip 1080p | Лицензия

232 | 13

3.99 ГБ




Вы не можете начинать темы
Вы не можете отвечать на сообщения
Вы не можете редактировать свои сообщения
Вы не можете удалять свои сообщения
Вы не можете добавлять вложения

Перейти:  
Для Мосгорсуда, Роскомнадзора и рекламодателей: mosgorsud-torrent[собачка]yandex.ru
 Вход
ppkBB3cker v.2 © 2008-2014 @ PPK
[ Time : 0.040s | 14 Queries | GZIP : Off ]

Торрент трекер RUTOR.IN, Не можете зайти на rutor.org? Какой новый адрес рутор? Какое зеркало рутор? Не работает rutor.org и зеркала? Тогда наш торрент специально для вас. Rutor.in неофициальное зеркало rutor. В случае если у Вас заблокирован rutor или вдруг Вы не можете на него зайти, то Вы без труда сможете скачать бесплатно и без рекламы последние новинки кино, игр, сериалов и прочего у нас, на Rutor.in. Не нужно использовать прокси, чтобы зайти на рутор, достаточно воспользоваться нашим ресурсом. Все новые фильмы, игры, сериалы, книги и музыка за 2013 и 2014 годы через торрент бесплатно. Скачивайте фильмы в хорошем качестве, игры для пк, xbox, playstation без регистрации. У нас вы найдете новые Зарубежные сериалы и Русские сериалы 2013, 2014, 2015 годов. Оставайтесь с нами, качайте любимые фильмы, игры, сериалы, книги и музыку.