img image001 image001 image001 image001 image001 image001 image001 image001 image001 image001 image001 image001 image001 image001 image001

Planets Sun Sun Sun
Статистика раздачи
Автор: PriZraK | Размер: 696.76 МБ | Добавлен: 15 фев 2014
Раздают: 54    Качают: 5
Скачать торрент
Скачать торрент
Описание торрента

СообщениеДобавлено: 15 фев 2014 


Иван Царевич и Серый Волк 2
(2013)
DVDRip-HEVC от FREEISLAND


«Любимые герои, новые приключения»




Страна: Россия
Жанр: Мультфильм, семейный
Продолжительность: 1 ч. 9 м. 46 с.
Перевод: Не требуется

Режиссер: Владимир Торопчин
Продюссер: Сергей Сельянов, Александр Боярский
Сценарий: Владимир Торопчин, Александр Боярский
Композитор: Михаил Чертищев
Студия: Кинокомпания CTB, Анимационная студия Мельница

Релиз на DVD: 21 января 2014, «Lizard Cinema Trade»
Релиз на Blu-Ray: 21 января 2014, «Lizard Cinema Trade»
Премьера в мире: 26 декабря 2013



Роли озвучивали:
Никита Ефремов - Иван, озвучка, Татьяна Бунина - Василиса, озвучка, Иван Охлобыстин - Царь, озвучка, Михаил Боярский - Кот Ученый, озвучка, Ирина Рахманова - Лунная лягушка, озвучка, Александр Боярский - Волк, озвучка

Описание:
В Тридевятом царстве, где живут наши герои — тишь, да благодать. Иван женился на Василисе, и «жили они долго и счастливо», да не тут-то было. Иван целыми днями пропадает с Волком на службе — укрепляет рубежи и оборонную мощь, мечтает перевести стрелки часов на семь часов назад, чтобы меньше спать, и больше работать. А Василисе — скучно, как всем девушкам, ей хочется романтики, ну, такой, как в сказках. И тогда она решает организовать свое похищение... Однако, когда такое бывало, что в сказках все получалось так, как задумывалось?

Внимание!

Рип в фомате HEVC, в настоящее время не поддерживается аппаратными проигрывателями.
Для корректного воспроизведения может потребоваться обновление ПО.
Владельцам несовместимого железа просьба не беспокоить, на трекере есть альтернативные релизы.
Качество: DVDRip-HEVC (SSIM: 0.9852147)
Исходник: DVD5
Контейнер: MKV
Видео кодек: x265
Аудио кодек: AC-3
Видео: AVC at 945 Кбит/сек, 720 x 576 @ 1024 x 576 (1.778) at 25.000 fps
Аудио: AC-3 at 448 Кбит/сек, 6 каналов, 48,0 КГц
Субтитры: нет
Навигация по главам: есть


Общее
Уникальный идентификатор : 223016522724634378313429441578091763543 (0xA7C76B7FEEC94813A6B436A0C5755757)
Полное имя :Иван Царевич и Серый Волк 2 (2013) DVDRip-HEVC by_F.HD.mkv
Формат : Matroska
Версия формата : Version 4 / Version 2
Размер файла : 697 Мбайт
Продолжительность : 1 ч. 9 м.
Общий поток : 1396 Кбит/сек
Название фильма : релиз от FREEISLAND.ORG
Дата кодирования : UTC 2014-01-17 15:22:09
Программа кодирования : mkvmerge v6.7.0 ('Back to the Ground') 32bit built on Jan 8 2014 15:03:17
Библиотека кодирования : libebml v1.3.0 + libmatroska v1.4.1

Видео
Идентификатор : 1
Формат : HEVC
Формат/Информация : High Efficiency Video Coding
Идентификатор кодека : V_MPEGH/ISO/HEVC
Продолжительность : 1 ч. 9 м.
Битрейт : 920 Кбит/сек
Ширина : 720 пикселей
Высота : 576 пикселей
Соотношение сторон : 16:9
Режим частоты кадров : Постоянный
Частота кадров : 25,000 кадров/сек
Стандарт вещания : PAL
Бит/(Пиксели*Кадры) : 0.089
Размер потока : 459 Мбайт (66%)
Default : Да
Forced : Нет

Аудио
Идентификатор : 2
Формат : AC-3
Формат/Информация : Audio Coding 3
Расширение режима : CM (complete main)
Параметр Endianness формата : Big
Идентификатор кодека : A_AC3
Продолжительность : 1 ч. 9 м.
Вид битрейта : Постоянный
Битрейт : 448 Кбит/сек
Каналы : 6 каналов
Расположение каналов : Front: L C R, Side: L R, LFE
Частота : 48,0 КГц
Битовая глубина : 16 бит
Метод сжатия : С потерями
Размер потока : 224 Мбайт (32%)
Язык : Russian
Default : Да
Forced : Нет

Меню
00:00:00.000 : :01
00:05:35.920 : :02
00:12:21.520 : :03
00:16:40.240 : :04
00:22:34.960 : :05
00:29:39.760 : :06
00:35:51.760 : :07
00:40:54.640 : :08
00:47:14.320 : :09
00:52:58.000 : :10
00:58:00.400 : :11
01:04:49.360 : :12




x265 [info]: HEVC encoder version 0.6+277-1d7ea03e1a38
x265 [info]: build info [Windows][GCC 4.8.2][64 bit] 8bpp
x265 [info]: Main profile, Level-6.1 (Main tier)
x265 [info]: WPP streams / pool / frames : 9 / 8 / 10
x265 [info]: CU size : 64
x265 [info]: Max RQT depth inter / intra : 2 / 2
x265 [info]: ME / range / subpel / merge : umh / 32 / 5 / 3
x265 [info]: Keyframe min / max : 25 / 25
x265 [info]: Rate Control / AQ-Strength / CUTree : CRF-16.0 / 0.7 / 1
x265 [info]: RDpenalty : 1
x265 [info]: Lookahead / bframes / badapt : 40 / 6 / 2
x265 [info]: b-pyramid / weightp / refs : 1 / 1 / 16
x265 [info]: tools: rect amp esd rd=4 lft sao-lcu sign-hide








Релиз от:


Что такое HEVC


H.265/HEVC (High Efficiency Video Coding) - это новый стандарт кодирования видео.
Стандарт H.265/HEVC является логическим продолжением стандарта H.264/AVC (Advanced Video Coding), и харакетризуется более эффективными алгоритмами сжатия, а также поддержкой высокого разрешения вплоть до 8K UHD (8192x4320).
Первая версия стандарта H.265 была опубликована в начале 2013 года.
Как смотреть HEVC


Любителям решения из коробки - установить последнюю версию Media Player Classic - Black Edition (MPC-BE) или VLC media player

Любителям WMP и других плееров, использующих по умолчанию для воспроизведения системные кодеки+сплитеры - установить K-Lite Codec Pack версии 10.1.0 и выше.

Любимые плееры, не использующии по умолчанию для воспроизведения системные кодеки+сплитеры, нужно перенастроить на использование оных.



   Похожие торренты   Торрент   Размер 
В этой теме нет новых непрочитанных сообщений. Иван Царевич и Серый Волк (2011) BDRip 1080p от FREEISLAND

27 | 11

4.37 ГБ

В этой теме нет новых непрочитанных сообщений. Иван Царевич и Серый Волк 2 (2013) DVDRip-AVC

1223 | 37

1.37 ГБ

В этой теме нет новых непрочитанных сообщений. Иван Царевич и Серый Волк 2 (2013) DVDRip | Лицензия

205 | 8

698.37 МБ

В этой теме нет новых непрочитанных сообщений. Иван Царевич и Серый Волк 2 (2013) DVDRip | Лицензия

3396 | 131

1.37 ГБ

В этой теме нет новых непрочитанных сообщений. Иван Царевич и Серый Волк 2 (2013) DVDRip от -=HD-NET=-| КПК | Лицензия

196 | 8

240.57 МБ

В этой теме нет новых непрочитанных сообщений. Иван Царевич и Серый Волк (2011) DVDRip-AVC

187 | 10

700.29 МБ

В этой теме нет новых непрочитанных сообщений. Иван Царевич и Серый Волк 2 (2013) HDRip | Лицензия

4566 | 168

1.37 ГБ




Вы не можете начинать темы
Вы не можете отвечать на сообщения
Вы не можете редактировать свои сообщения
Вы не можете удалять свои сообщения
Вы не можете добавлять вложения

Перейти:  
Для Мосгорсуда, Роскомнадзора и рекламодателей: mosgorsud-torrent[собачка]yandex.ru
 Вход
ppkBB3cker v.2 © 2008-2014 @ PPK
[ Time : 0.047s | 14 Queries | GZIP : Off ]

Торрент трекер RUTOR.IN, Не можете зайти на rutor.org? Какой новый адрес рутор? Какое зеркало рутор? Не работает rutor.org и зеркала? Тогда наш торрент специально для вас. Rutor.in неофициальное зеркало rutor. В случае если у Вас заблокирован rutor или вдруг Вы не можете на него зайти, то Вы без труда сможете скачать бесплатно и без рекламы последние новинки кино, игр, сериалов и прочего у нас, на Rutor.in. Не нужно использовать прокси, чтобы зайти на рутор, достаточно воспользоваться нашим ресурсом. Все новые фильмы, игры, сериалы, книги и музыка за 2013 и 2014 годы через торрент бесплатно. Скачивайте фильмы в хорошем качестве, игры для пк, xbox, playstation без регистрации. У нас вы найдете новые Зарубежные сериалы и Русские сериалы 2013, 2014, 2015 годов. Оставайтесь с нами, качайте любимые фильмы, игры, сериалы, книги и музыку.