img image001 image001 image001 image001 image001 image001 image001 image001 image001 image001 image001 image001 image001 image001 image001

Planets Sun Sun Sun
Статистика раздачи
Автор: PriZraK | Размер: 750.48 МБ | Добавлен: 15 фев 2014
Раздают: 44    Качают: 5
Скачать торрент
Скачать торрент
Описание торрента

СообщениеДобавлено: 15 фев 2014 


Информация о фильме
Название: Зодиак: Гонка началась
Оригинальное название: Zodiac: The Race Begins... / Sheng xiao chuan qi
Год выхода: 2006
Жанр: мультфильм, приключения
Режиссер: Эдвард Фу
В ролях: Фэнн Вонг, Дэннис Чю, Джэми Ео, Vernetta Lopez, Жао Джин Чен, Джонни ЭнДжи, Юн Фэй Ли, Hock Lai Lim, Saik Nee Ng, Тек Ван ЭнДжи

О фильме:
Зло стремится завладеть миром людей и строит страшные планы разорения и гибели. Дабы воспрепятствовать Злу, Нефритовый Император, который был призван самим Буддой, чтобы править Миром, провозглашает начало великой гонки — гонки Зодиака!

И с момента провозглашения начинаются тяжелые испытания и несчастья для каждого из выбранных животных на их пути в божественное королевство. Каждый из них стремится получить титул Властелина Зодиака, каждый хочет быть увековеченным в веках. Начинается великая гонка…



Страна: Сингапур
Студия: Cubix International
Продолжительность: 01:26:47
Перевод: Профессиональный (одноголосый закадровый)

Файл
Кодек: XviD
Качество: DVDRip
Видео: 688x344 (2.000), 25.000 fps, 975 Kbps
Звук: AC-3, 224 Kbps, 3/2 (L,C,R,l,r) + LFE ch, 48.0 kHz, CBR
Субтитры: нет

SAMPLE

Релиз от: Neronastik

Общее
Полное имя : Зодиак.avi
Формат : AVI
Формат/Информация : Audio Video Interleave
Размер файла : 750 Мбайт
Продолжительность : 1 ч. 26 м.
Общий поток : 1209 Кбит/сек
Программа кодирования : VirtualDubMod 1.5.10.2 (build 2540/release)
Библиотека кодирования : VirtualDubMod build 2540/release

Видео
Идентификатор : 0
Формат : MPEG-4 Visual
Профиль формата : Advanced Simple@L5
Параметр BVOP формата : 3
Параметр QPel формата : Нет
Параметр GMC формата : Без точки перехода
Параметр матрицы формата : Default (H.263)
Идентификатор кодека : XVID
Идентификатор кодека/Подсказка : XviD
Продолжительность : 1 ч. 26 м.
Битрейт : 975 Кбит/сек
Ширина : 688 пикселей
Высота : 344 пикселя
Соотношение сторон : 2,000
Частота кадров : 25,000 кадров/сек
Цветовое пространство : YUV
Субдискретизация насыщенности : 4:2:0
Битовая глубина : 8 бит
Тип развёртки : Прогрессивная
Метод сжатия : С потерями
Бит/(Пиксели*Кадры) : 0.165
Размер потока : 605 Мбайт (81%)
Библиотека кодирования : XviD 1.2.0.dev47 (UTC 2006-11-01)

Аудио
Идентификатор : 1
Формат : AC-3
Формат/Информация : Audio Coding 3
Расширение режима : CM (complete main)
Параметр Endianness формата : Big
Идентификатор кодека : 2000
Продолжительность : 1 ч. 26 м.
Вид битрейта : Постоянный
Битрейт : 224 Кбит/сек
Каналы : 6 каналов
Расположение каналов : Front: L C R, Side: L R, LFE
Частота : 48,0 КГц
Битовая глубина : 16 бит
Метод сжатия : С потерями
Размер потока : 139 Мбайт (19%)
Выравнивание : Разделение по промежуткам
Продолжительность промежутка : 40 мс. (1,00 видеокадр)
Время предзагрузки промежутка : 500 мс.



   Похожие торренты   Торрент   Размер 
В этой теме нет новых непрочитанных сообщений. Зодиак. Гонка началась / Sheng xiao chuan qi / Zodiac: The Race Begins (2006) DVD5 от Youtracker | P2 | Лицензия

0 | 3

3.98 ГБ

В этой теме нет новых непрочитанных сообщений. Зодиак / The Zodiac (2005) DVDRip

17 | 9

1.46 ГБ

В этой теме нет новых непрочитанных сообщений. Зодиак / Zodiac (2007) HDRip от PlanetaUA

76 | 5

2.18 ГБ

В этой теме нет новых непрочитанных сообщений. Зодиак / Zodiac (2007) HDRip от Шкипер | Director's Cut | D

122 | 24

2.29 ГБ

В этой теме нет новых непрочитанных сообщений. Зодиак / Zodiac (2007) BDRip 1080p | Director's Cut

301 | 28

7.76 ГБ

В этой теме нет новых непрочитанных сообщений. Зодиак - Дискография / Zodiac - Discography (1980-2008) МР3

352 | 35

663.56 МБ

В этой теме нет новых непрочитанных сообщений. Зодиак / Zodiac (2007) BDRip-AVC by R.G. Beautiful Thieves

30 | 6

3.12 ГБ




Вы не можете начинать темы
Вы не можете отвечать на сообщения
Вы не можете редактировать свои сообщения
Вы не можете удалять свои сообщения
Вы не можете добавлять вложения

Перейти:  
Для Мосгорсуда, Роскомнадзора и рекламодателей: mosgorsud-torrent[собачка]yandex.ru
 Вход
ppkBB3cker v.2 © 2008-2014 @ PPK
[ Time : 0.040s | 14 Queries | GZIP : Off ]

Торрент трекер RUTOR.IN, Не можете зайти на rutor.org? Какой новый адрес рутор? Какое зеркало рутор? Не работает rutor.org и зеркала? Тогда наш торрент специально для вас. Rutor.in неофициальное зеркало rutor. В случае если у Вас заблокирован rutor или вдруг Вы не можете на него зайти, то Вы без труда сможете скачать бесплатно и без рекламы последние новинки кино, игр, сериалов и прочего у нас, на Rutor.in. Не нужно использовать прокси, чтобы зайти на рутор, достаточно воспользоваться нашим ресурсом. Все новые фильмы, игры, сериалы, книги и музыка за 2013 и 2014 годы через торрент бесплатно. Скачивайте фильмы в хорошем качестве, игры для пк, xbox, playstation без регистрации. У нас вы найдете новые Зарубежные сериалы и Русские сериалы 2013, 2014, 2015 годов. Оставайтесь с нами, качайте любимые фильмы, игры, сериалы, книги и музыку.