img image001 image001 image001 image001 image001 image001 image001 image001 image001 image001 image001 image001 image001 image001 image001

Planets Sun Sun Sun
Статистика раздачи
Автор: PriZraK | Размер: 6.35 ГБ | Добавлен: 15 фев 2014
Раздают: 145    Качают: 19
Скачать торрент
Скачать торрент
Описание торрента

СообщениеДобавлено: 15 фев 2014 


Красавица и чудовище: Чудесное Рождество (видео)
Beauty and the Beast: The Enchanted Christmas
Год выпуска: 1997
Страна: США , Канада
Жанр: мультфильм, фэнтези, семейный, музыка
Продолжительность: 01:10:43
Перевод: Профессиональный (дублированный)
Субтитры: Russian (UTF-8), English (UTF-8)

Режиссер: Эндрю Найт

Дублёры: Сауле Искакова (Belle), Олег Куликович (Beast), Виктор Костецкий (Lumiere), Игорь Шибанов (Cogsworth), Юлия Рудина (Angelique), Андрей Тенетко (Forte), Юрий Герцман (Axe), Марина Гладкая (Enchantress), Игорь Мосюк (Fife), Елена Дриацкая (Mrs. Potts)

Описание: Любовь Белл к чудовищу изменила все вокруг и теперь все заколдованные предметы в замке снова стали людьми, даже маленький Чип, некогда бывший всего лишь маленькой чашечкой. В свое первое Рождество, которое Чип встречает не как чашечка, а как мальчик, он просит маму рассказать, что же на самом деле случилось в замке прошлым Рождеством. Рождество — это время волшебства, но сильнее всего на свете оно в замке чудовища. Время тьмы и горя ушло навеки, но что способствовало этому?

Рейтинг MPAA: Нет возрастных ограничений




Качество: BDRip 1080p от DON
Формат: MKV
Видео кодек: H.264 (AVC)
Аудио кодеk: AC3
Видео: 1920x1080 (16:9), 23.976 fps, AVC, 12.0 Mbps
Аудио: Аудио #1: AC3, 192 Kbps, 48.0 KHz, 2 ch RUS Dub
Аудио #2: AC3, 448 Kbps, 48.0 KHz, 6 ch ENG

Отдельно дороги:
Авторский одноголосый Ю.Живов
Одноголосый закадровый Н.Антонов
Авторский одноголосый А.Кашкин
Профессиональный (многоголосый, закадровый)

General
Unique ID : 237897584380722543964270274598318616862 (0xB2F9687C3B43A9B198B5175AAC87B11E)
Complete name : Beauty.and.the.Beast.The.Enchanted.Christmas.1997.1080p-DON .mkv
Format : Matroska
Format version : Version 4 / Version 2
File size : 6.35 GiB
Duration : 1h 10mn
Overall bit rate : 12.9 Mbps
Encoded date : UTC 2014-01-20 16:05:38
Writing application : mkvmerge v6.7.0 ('Back to the Ground') 32bit built on Jan 10 2014 19:46:37
Writing library : libebml v1.3.0 + libmatroska v1.4.1

Video
ID : 1
Format : AVC
Format/Info : Advanced Video Codec
Format profile : High@L4.1
Format settings, CABAC : Yes
Format settings, ReFrames : 4 frames
Codec ID : V_MPEG4/ISO/AVC
Bit rate : 12.0 Mbps
Width : 1 920 pixels
Height : 1 080 pixels
Display aspect ratio : 16:9
Frame rate mode : Variable
Original frame rate : 23.976 fps
Color space : YUV
Chroma subsampling : 4:2:0
Bit depth : 8 bits
Scan type : Progressive
Writing library : x264 core 120 r2120+639 552713c
Encoding settings : cabac=1 / ref=4 / deblock=1:0:-1 / analyse=0x3:0x133 / me=tesa / subme=10 / psy=1 / fade_compensate=0.00 / psy_rd=0.40:0.00 / mixed_ref=1 / me_range=24 / chroma_me=1 / trellis=2 / 8x8dct=1 / cqm=0 / deadzone=21,11 / fast_pskip=0 / chroma_qp_offset=-2 / threads=6 / sliced_threads=0 / nr=0 / decimate=0 / interlaced=0 / bluray_compat=0 / constrained_intra=0 / fgo=0 / bframes=7 / b_pyramid=2 / b_adapt=2 / b_bias=0 / direct=3 / weightb=1 / open_gop=0 / weightp=2 / keyint=250 / keyint_min=23 / scenecut=40 / intra_refresh=0 / rc_lookahead=60 / rc=crf / mbtree=0 / crf=15.2 / qcomp=0.60 / qpmin=0 / qpmax=69 / qpstep=4 / vbv_maxrate=50000 / vbv_bufsize=62500 / crf_max=0.0 / nal_hrd=none / ip_ratio=1.40 / pb_ratio=1.30 / aq=1:0.50
Language : English
Default : Yes
Forced : No

Audio #1
ID : 2
Format : AC-3
Format/Info : Audio Coding 3
Mode extension : CM (complete main)
Format settings, Endianness : Big
Codec ID : A_AC3
Duration : 1h 10mn
Bit rate mode : Constant
Bit rate : 192 Kbps
Channel(s) : 2 channels
Channel positions : Front: L R
Sampling rate : 48.0 KHz
Bit depth : 16 bits
Compression mode : Lossy
Stream size : 97.1 MiB (1%)
Title : Дубляж
Language : Russian
Default : Yes
Forced : No

Audio #2
ID : 3
Format : AC-3
Format/Info : Audio Coding 3
Mode extension : CM (complete main)
Format settings, Endianness : Big
Codec ID : A_AC3
Duration : 1h 10mn
Bit rate mode : Constant
Bit rate : 448 Kbps
Channel(s) : 6 channels
Channel positions : Front: L C R, Side: L R, LFE
Sampling rate : 48.0 KHz
Bit depth : 16 bits
Compression mode : Lossy
Stream size : 227 MiB (3%)
Language : English
Default : No
Forced : No

Text #1
ID : 4
Format : UTF-8
Codec ID : S_TEXT/UTF8
Codec ID/Info : UTF-8 Plain Text
Language : Russian
Default : No
Forced : No

Text #2
ID : 5
Format : UTF-8
Codec ID : S_TEXT/UTF8
Codec ID/Info : UTF-8 Plain Text
Title : English
Language : English
Default : No
Forced : No

Text #3
ID : 6
Format : UTF-8
Codec ID : S_TEXT/UTF8
Codec ID/Info : UTF-8 Plain Text
Title : English SDH
Language : English
Default : No
Forced : No

Menu
00:00:00.000 : :00:00:00.000
00:04:25.307 : :00:04:25.307
00:10:17.158 : :00:10:17.158
00:14:17.523 : :00:14:17.523
00:23:21.609 : :00:23:21.609
00:26:11.236 : :00:26:11.236
00:29:25.263 : :00:29:25.263
00:33:53.156 : :00:33:53.156
00:39:17.564 : :00:39:17.564
00:45:54.418 : :00:45:54.418
00:51:39.596 : :00:51:39.596
01:03:30.765 : :01:03:30.765
lack levels fixed - they are screwed in the source.

















   Похожие торренты   Торрент   Размер 
В этой теме нет новых непрочитанных сообщений. Красавица и чудовище: Чудесное Рождество / Beauty and the Beast: The Enchanted Christmas (1997) BDRip от HQCLUB

176 | 5

1.46 ГБ

В этой теме нет новых непрочитанных сообщений. Красавица и чудовище: Чудесное Рождество / Beauty and the Beast: The Enchanted Christmas (1997) BDRip от HQCLUB

413 | 11

1.45 ГБ

В этой теме нет новых непрочитанных сообщений. Красавица и чудовище: Чудесное Рождество / Beauty and the Beast: The Enchanted Christmas (1997) BDRip-HEVC 720p от Freeisland

80 | 9

2.05 ГБ

В этой теме нет новых непрочитанных сообщений. Красавица и чудовище 2: Волшебное Рождество / Beauty and the Beast: The Enchanted Christmas (1997) DVDRip от ExKinoRay

139 | 18

1.37 ГБ

В этой теме нет новых непрочитанных сообщений. Красавица и чудовище / Beauty and the Beast (1991) BDRip 1080р

46 | 3

8.76 ГБ

В этой теме нет новых непрочитанных сообщений. Красавица и чудовище / Beauty and the Beast [03x01] (2015) WEB-DL 1080р | LostFilm

93 | 6

1.79 ГБ

В этой теме нет новых непрочитанных сообщений. Красавица и чудовище / Beauty and the Beast [04х01] (2016) WEB-DL 1080р | LostFilm

7 | 0

1.75 ГБ




Вы не можете начинать темы
Вы не можете отвечать на сообщения
Вы не можете редактировать свои сообщения
Вы не можете удалять свои сообщения
Вы не можете добавлять вложения

Перейти:  
Для Мосгорсуда, Роскомнадзора и рекламодателей: mosgorsud-torrent[собачка]yandex.ru
 Вход
ppkBB3cker v.2 © 2008-2014 @ PPK
[ Time : 1.909s | 16 Queries | GZIP : Off ]

Торрент трекер RUTOR.IN, Не можете зайти на rutor.org? Какой новый адрес рутор? Какое зеркало рутор? Не работает rutor.org и зеркала? Тогда наш торрент специально для вас. Rutor.in неофициальное зеркало rutor. В случае если у Вас заблокирован rutor или вдруг Вы не можете на него зайти, то Вы без труда сможете скачать бесплатно и без рекламы последние новинки кино, игр, сериалов и прочего у нас, на Rutor.in. Не нужно использовать прокси, чтобы зайти на рутор, достаточно воспользоваться нашим ресурсом. Все новые фильмы, игры, сериалы, книги и музыка за 2013 и 2014 годы через торрент бесплатно. Скачивайте фильмы в хорошем качестве, игры для пк, xbox, playstation без регистрации. У нас вы найдете новые Зарубежные сериалы и Русские сериалы 2013, 2014, 2015 годов. Оставайтесь с нами, качайте любимые фильмы, игры, сериалы, книги и музыку.