img image001 image001 image001 image001 image001 image001 image001 image001 image001 image001 image001 image001 image001 image001 image001

Planets Sun Sun Sun
Статистика раздачи
Автор: PriZraK | Размер: 1.27 ГБ | Добавлен: 15 фев 2014
Раздают: 79    Качают: 11
Скачать торрент
Скачать торрент
Описание торрента

СообщениеДобавлено: 15 фев 2014 



Информация о фильме
Название: Роботы
Оригинальное название: Robots
Год выхода: 2005
Жанр: мультфильм, фантастика, мелодрама, комедия, приключения, семейный
Режиссер: Крис Уэдж, Карлос Салдана
В ролях: Юэн МакГрегор, Робин Уильямс, Холли Берри, Мел Брукс, Джим Броудбент, Пол Джаматти, Дэн Хедайя, Грег Киннер, Стенли Туччи, Паула Абдул

О фильме:
Действие фильма разворачивается в мире, населенном исключительно роботами. Как и в мире людей у них есть своя социальная лестница, свои герои и изгои. Молодой гений Родни мечтает сделать мир роботов лучше. А еще ему очень нравится одна молоденькая сексапильная роботша Каппи. Но на пути всех его планов стоит ведущий дизайнер роботов Биг Велд, принадлежащий к тому же сословию, что и Каппи…



Страна: США
Продолжительность: 01:29:47
Перевод: Русский профессиональный (дублированный), Русский профессиональный двухголосый закадровый (Tycoon), Украинский профессиональный многоголосый (1+1)

Файл
Кодек: H.264
Качество: BDRip Исходник: Blu-Ray Remux
Видео: H.264, 640x460 (852х460 анаморф), ~1.86:1, 1500 Kbps, 23.976 fps
Звук:
Русская дорожка, AAC, 2 канала, 48.0 KHz, 128 Kbps, F L,R
Русская дорожка, AAC, 2 канала, 48.0 KHz, 128 Kbps, F L,R (Tycoon)
Украинская дорожка, AAC, 2 канала, 48.0 KHz, 128 Kbps, F L,R (1+1)
Английская дорожка, AAC, 2 канала, 48.0 KHz, 128 Kbps, F L,R

Код:
Media Type: Movie
XID: Apple:vendor_id:2005-tt0358082
Content ID: 270006549
ScreenWriters: Дэвид Линдси-Эбейр, Лауэлл Ганц, Бабалу Мэндел
Producers: Джерри Дэвис, Джон С. Донкин, Уильям Джойс
Director: Крис Уэдж, Карлос Салдана
Cast: Юэн МакГрегор, Робин Уильямс, Холли Берри, Мел Брукс, Джим Броудбент, Пол Джаматти, Дэн Хедайя, Грег Киннер, Стенли Туччи, Паула Абдул
Rating: PG
Long Deion: Действие фильма разворачивается в мире, населенном исключительно роботами. Как и в мире людей у них есть своя социальная лестница, свои герои и изгои. Молодой гений Родни мечтает сделать мир роботов лучше. А еще ему очень нравится одна молоденькая сексапильная роботша Каппи. Но на пути всех его планов стоит ведущий дизайнер роботов Биг Велд, принадлежащий к тому же сословию, что и Каппи…
Deion: Действие фильма разворачивается в мире, населенном исключительно роботами. Как и в мире людей у них есть своя социальная лестница, свои герои и изгои. Молодой гений Родни мечтает сделать мир роботов лучше. А еще ему очень нравится одна молоденькая...
Release Date: 2005-03-10T07:00:00Z
Genre:  мультфильм, фантастика, мелодрама, комедия, приключения, семейный
Artist: Крис Уэдж, Карлос Салдана
Name: Роботы
Код:
General
Complete name                            : C:UsersNarekDesktopRobots.mp4
Format                                   : MPEG-4
Format profile                           : Base Media
Codec ID                                 : isom
File size                                : 1.27 GiB
Duration                                 : 1h 29mn
Overall bit rate mode                    : Variable
Overall bit rate                         : 2 029 Kbps
Movie name                               : Роботы
Performer                                : Крис Уэдж, Карлос Салдана
Genre                                    :  мультфильм, фантастика, мелодрама, комедия, приключения, семейный
ContentType                              : Short Film
Deion                              : Действие фильма разворачивается в мире, населенном исключительно роботами. Как и в мире людей у них есть своя социальная лестница, свои герои и изгои. Молодой гений Родни мечтает сделать мир роботов лучше. А еще ему очень нравится одна молоденькая...
Recorded date                            : UTC 2005-03-10 07:00:00
Encoded date                             : UTC 2014-01-19 09:59:32
Tagged date                              : UTC 2014-01-20 20:12:57
Writing application                      : MkvToMp4 [www.mkvtomp4.ru] version: 0.224 (x64)
Cover                                    : Yes
LongDeion                          : Действие фильма разворачивается в мире, населенном исключительно роботами. Как и в мире людей у них есть своя социальная лестница, свои герои и изгои. Молодой гений Родни мечтает сделать мир роботов лучше. А еще ему очень нравится одна молоденькая сексапильная роботша Каппи. Но на пути всех его планов стоит ведущий дизайнер роботов Биг Велд, принадлежащий к тому же сословию, что и Каппи…
AppleStoreCatalogID                      : 270006549
Vendor                                   : Apple:vendor_id:2005-tt0358082
ContentRating                            : mpaa|PG|200|

Video
ID                                       : 1
Format                                   : AVC
Format/Info                              : Advanced Video Codec
Format profile                           : Baseline@L3.0
Format settings, CABAC                   : No
Format settings, ReFrames                : 3 frames
Codec ID                                 : avc1
Codec ID/Info                            : Advanced Video Coding
Duration                                 : 1h 29mn
Bit rate                                 : 1 500 Kbps
Maximum bit rate                         : 6 838 Kbps
Width                                    : 640 pixels
Height                                   : 460 pixels
Display aspect ratio                     : 1.85:1
Frame rate mode                          : Variable
Frame rate                               : 23.976 fps
Minimum frame rate                       : 23.810 fps
Maximum frame rate                       : 24.390 fps
Color space                              : YUV
Chroma subsampling                       : 4:2:0
Bit depth                                : 8 bits
Scan type                                : Progressive
Bits/(Pixel*Frame)                       : 0.213
Stream size                              : 963 MiB (74%)
Writing library                          : x264 core 130 r2273 b3065e6
Encoding settings                        : cabac=0 / ref=3 / deblock=1:-1:-1 / analyse=0x1:0x111 / me=umh / subme=9 / psy=1 / psy_rd=1.00:0.15 / mixed_ref=1 / me_range=16 / chroma_me=1 / trellis=1 / 8x8dct=0 / cqm=0 / deadzone=21,11 / fast_pskip=1 / chroma_qp_offset=-3 / threads=6 / lookahead_threads=1 / sliced_threads=0 / nr=0 / decimate=1 / interlaced=0 / bluray_compat=0 / constrained_intra=0 / bframes=0 / weightp=0 / keyint=240 / keyint_min=24 / scenecut=40 / intra_refresh=0 / rc_lookahead=40 / rc=2pass / mbtree=1 / bitrate=1500 / ratetol=1.0 / qcomp=0.60 / qpmin=0 / qpmax=69 / qpstep=4 / cplxblur=20.0 / qblur=0.5 / vbv_maxrate=5000 / vbv_bufsize=5000 / nal_hrd=none / ip_ratio=1.40 / aq=1:1.00
Encoded date                             : UTC 2014-01-20 08:16:51
Tagged date                              : UTC 2014-01-19 10:00:17
Color primaries                          : BT.709
Transfer characteristics                 : BT.709
Matrix coefficients                      : BT.709

Audio #1
ID                                       : 2
Format                                   : AAC
Format/Info                              : Advanced Audio Codec
Format profile                           : LC
Codec ID                                 : 40
Duration                                 : 1h 29mn
Bit rate mode                            : Variable
Bit rate                                 : 128 Kbps
Maximum bit rate                         : 240 Kbps
Channel(s)                               : 2 channels
Channel positions                        : Front: L R
Sampling rate                            : 48.0 KHz
Compression mode                         : Lossy
Stream size                              : 82.1 MiB (6%)
Language                                 : Russian
Encoded date                             : UTC 2014-01-19 10:00:07
Tagged date                              : UTC 2014-01-19 10:00:17

Audio #2
ID                                       : 3
Format                                   : AAC
Format/Info                              : Advanced Audio Codec
Format profile                           : LC
Codec ID                                 : 40
Duration                                 : 1h 29mn
Bit rate mode                            : Variable
Bit rate                                 : 128 Kbps
Maximum bit rate                         : 252 Kbps
Channel(s)                               : 2 channels
Channel positions                        : Front: L R
Sampling rate                            : 48.0 KHz
Compression mode                         : Lossy
Stream size                              : 82.1 MiB (6%)
Language                                 : Russian
Encoded date                             : UTC 2014-01-19 10:00:10
Tagged date                              : UTC 2014-01-19 10:00:17

Audio #3
ID                                       : 4
Format                                   : AAC
Format/Info                              : Advanced Audio Codec
Format profile                           : LC
Codec ID                                 : 40
Duration                                 : 1h 29mn
Bit rate mode                            : Variable
Bit rate                                 : 128 Kbps
Maximum bit rate                         : 236 Kbps
Channel(s)                               : 2 channels
Channel positions                        : Front: L R
Sampling rate                            : 48.0 KHz
Compression mode                         : Lossy
Stream size                              : 82.1 MiB (6%)
Language                                 : Ukrainian
Encoded date                             : UTC 2014-01-19 10:00:12
Tagged date                              : UTC 2014-01-19 10:00:17

Audio #4
ID                                       : 5
Format                                   : AAC
Format/Info                              : Advanced Audio Codec
Format profile                           : LC
Codec ID                                 : 40
Duration                                 : 1h 29mn
Bit rate mode                            : Variable
Bit rate                                 : 128 Kbps
Maximum bit rate                         : 251 Kbps
Channel(s)                               : 2 channels
Channel positions                        : Front: L R
Sampling rate                            : 48.0 KHz
Compression mode                         : Lossy
Stream size                              : 82.1 MiB (6%)
Language                                 : English
Encoded date                             : UTC 2014-01-19 10:00:15
Tagged date                              : UTC 2014-01-19 10:00:17

Text #1
ID                                       : 6
Format                                   : Timed Text
Muxing mode                              : sbtl
Codec ID                                 : tx3g
Duration                                 : 1h 29mn
Bit rate mode                            : Variable
Bit rate                                 : 95 bps
Stream size                              : 62.3 KiB (0%)
Language                                 : Russian
Encoded date                             : UTC 2014-01-19 10:00:17
Tagged date                              : UTC 2014-01-19 10:00:17

Text #2
ID                                       : 7
Format                                   : Timed Text
Muxing mode                              : sbtl
Codec ID                                 : tx3g
Duration                                 : 1h 23mn
Bit rate mode                            : Variable
Bit rate                                 : 65 bps
Stream size                              : 39.7 KiB (0%)
Language                                 : English
Encoded date                             : UTC 2014-01-19 10:00:17
Tagged date                              : UTC 2014-01-19 10:00:17

Menu
ID                                       : 8
Codec ID                                 : text
Duration                                 : 1h 29mn
Encoded date                             : UTC 2014-01-20 20:12:57
Tagged date                              : UTC 2014-01-20 20:12:57
Bit rate mode                            : CBR
Duration_LastFrame                       : -12327
Код:
x264 [info]: frame I:2062  Avg QP:17.48  size: 39579  PSNR Mean Y:45.91 U:50.02 V:49.97 Avg:46.83 Global:46.08
x264 [info]: frame P:127113 Avg QP:20.72  size:  7301  PSNR Mean Y:43.75 U:47.84 V:47.77 Avg:44.67 Global:44.11
x264 [info]: mb I  I16..4: 18.5%  0.0% 81.5%
x264 [info]: mb P  I16..4:  1.0%  0.0%  3.9%  P16..4: 30.1% 14.2%  7.2%  0.0%  0.0%    skip:43.5%
x264 [info]: coded y,uvDC,uvAC intra: 74.4% 84.0% 59.2% inter: 19.1% 26.2% 5.9%
x264 [info]: i16 v,h,dc,p: 32% 18%  9% 42%
x264 [info]: i4 v,h,dc,ddl,ddr,vr,hd,vl,hu: 13%  8%  6% 12% 15% 15% 12% 11%  8%
x264 [info]: i8c dc,h,v,p: 47% 17% 24% 11%
x264 [info]: ref P L0: 75.6% 13.8% 10.6%
x264 [info]: SSIM Mean Y:0.9854544 (18.373db)
x264 [info]: PSNR Mean Y:43.780 U:47.871 V:47.805 Avg:44.701 Global:44.131 kb/s:1499.18


Релиз от:



   Похожие торренты   Торрент   Размер 
В этой теме нет новых непрочитанных сообщений. Роботы / Robots (2005) BDRip от HQCLUB

66 | 21

1.73 ГБ

В этой теме нет новых непрочитанных сообщений. Роботы / Robots (2005) BDRip 1080p

84 | 41

4.37 ГБ

В этой теме нет новых непрочитанных сообщений. Роботы / Robots (2005) BDRip от HELLYWOOD

57 | 15

1.73 ГБ

В этой теме нет новых непрочитанных сообщений. Роботы / Robots (2005) BDRip-AVC | iPad

46 | 24

1.99 ГБ

В этой теме нет новых непрочитанных сообщений. Роботы / Robots (2005) BDRip-AVC от potroks | D

43 | 2

2.19 ГБ

В этой теме нет новых непрочитанных сообщений. Роботы / Robots (2005) BDRip-AVC от 0ptimus | D, P2

69 | 6

2.83 ГБ

В этой теме нет новых непрочитанных сообщений. Роботы / Robots (2005) BDRip (1080p) | D, P2

25 | 5

7.82 ГБ




Вы не можете начинать темы
Вы не можете отвечать на сообщения
Вы не можете редактировать свои сообщения
Вы не можете удалять свои сообщения
Вы не можете добавлять вложения

Перейти:  
Для Мосгорсуда, Роскомнадзора и рекламодателей: mosgorsud-torrent[собачка]yandex.ru
 Вход
ppkBB3cker v.2 © 2008-2014 @ PPK
[ Time : 0.813s | 15 Queries | GZIP : Off ]

Торрент трекер RUTOR.IN, Не можете зайти на rutor.org? Какой новый адрес рутор? Какое зеркало рутор? Не работает rutor.org и зеркала? Тогда наш торрент специально для вас. Rutor.in неофициальное зеркало rutor. В случае если у Вас заблокирован rutor или вдруг Вы не можете на него зайти, то Вы без труда сможете скачать бесплатно и без рекламы последние новинки кино, игр, сериалов и прочего у нас, на Rutor.in. Не нужно использовать прокси, чтобы зайти на рутор, достаточно воспользоваться нашим ресурсом. Все новые фильмы, игры, сериалы, книги и музыка за 2013 и 2014 годы через торрент бесплатно. Скачивайте фильмы в хорошем качестве, игры для пк, xbox, playstation без регистрации. У нас вы найдете новые Зарубежные сериалы и Русские сериалы 2013, 2014, 2015 годов. Оставайтесь с нами, качайте любимые фильмы, игры, сериалы, книги и музыку.