img image001 image001 image001 image001 image001 image001 image001 image001 image001 image001 image001 image001 image001 image001 image001

Planets Sun Sun Sun
Статистика раздачи
Автор: PriZraK | Размер: 690.22 МБ | Добавлен: 15 фев 2014
Раздают: 28    Качают: 5
Скачать торрент
Скачать торрент
Описание торрента

СообщениеДобавлено: 15 фев 2014 


Информация о фильме
Название: Кенгуру Джекпот: Новые приключения
Оригинальное название: Kangaroo Jack: G'Day, U.S.A.!
Год выхода: 2004
Жанр: мультфильм, семейный
Режиссер: Эмори Мирик
В ролях: Джошуа Китон, Ахмед Бест, Кэт Сауси, Джефф Беннетт, Джим Уорд, Фил ЛаМарр, Кит Даймонд, Обба Бабатунде, Карлос Аласраки, Джинни Илайас

О фильме:
После того, как браконьеры похитили Джеки — Луис, Чарли и Джесси бросаются на помощь! Попытки спасти длинноногого друга приводят их обратно в США — в сверкающий огнями роскошный Лас-Вегас! В Вегасе команда спасателей становится свидетелями похищения бриллиантов, и ФБР, не разобравшись, принимает их за грабителей!

Теперь, чтобы доказать свою невиновность надо найти украденные драгоценности! Но для этого потребуется Джеки! Где его искать? На боксерских поединках, ночных дискотеках или в многочисленных кафе?!



Official Site

Страна: США
Студия: Castle Rock Entertainment, Warner Bros. Animation
Продолжительность: 01:12:29
Перевод: Профессиональный (дублированный)

Файл
Кодек: DivX 6
Качество: DVDRip
Видео: 704x400 (16:9), 1066 kbps, 25.000 fps
Звук:
Russian; MP3, 128 kbps, 2 ch, 48.0 kHz, CBR
English; MP3, 128 kbps, 2 ch, 48.0 kHz, CBR
Субтитры: нет

SAMPLE

Релиз от:

Общее
Полное имя : Kangaroo Jack - G'Day U.avi
Формат : AVI
Формат/Информация : Audio Video Interleave
Размер файла : 690 Мбайт
Продолжительность : 1 ч. 12 м.
Общий поток : 1331 Кбит/сек
Название фильма : Kangaroo Jack - G'Day U
Программа кодирования : VirtualDubMod 1.5.4.1 (build 2178/release)VirtualDubMod build 2178/release

Видео
Идентификатор : 0
Формат : MPEG-4 Visual
Параметр BVOP формата : 1
Параметр QPel формата : Нет
Параметр GMC формата : Без точки перехода
Параметр матрицы формата : Default (H.263)
Режим смешивания : Сжатый битовый поток
Идентификатор кодека : DX50
Идентификатор кодека/Подсказка : DivX 5
Продолжительность : 1 ч. 12 м.
Битрейт : 1066 Кбит/сек
Ширина : 704 пикселя
Высота : 400 пикселей
Соотношение сторон : 16:9
Частота кадров : 25,000 кадров/сек
Цветовое пространство : YUV
Субдискретизация насыщенности : 4:2:0
Битовая глубина : 8 бит
Тип развёртки : Прогрессивная
Метод сжатия : С потерями
Бит/(Пиксели*Кадры) : 0.151
Размер потока : 552 Мбайт (80%)
Библиотека кодирования : DivX 6.7.0 (UTC 2007-09-20)

Аудио #1
Идентификатор : 1
Формат : MPEG Audio
Версия формата : Version 1
Профиль формата : Layer 3
Режим : Joint stereo
Расширение режима : MS Stereo
Идентификатор кодека : 55
Идентификатор кодека/Подсказка : MP3
Продолжительность : 1 ч. 12 м.
Вид битрейта : Постоянный
Битрейт : 128 Кбит/сек
Каналы : 2 канала
Частота : 48,0 КГц
Метод сжатия : С потерями
Размер потока : 66,4 Мбайт (10%)
Выравнивание : Соединение по промежуткам
Продолжительность промежутка : 80 мс. (2,00 видеокадра)
Время предзагрузки промежутка : 504 мс.
Библиотека кодирования : LAME3.97
Язык : Не определен / Russian

Аудио #2
Идентификатор : 2
Формат : MPEG Audio
Версия формата : Version 1
Профиль формата : Layer 3
Режим : Joint stereo
Расширение режима : MS Stereo
Идентификатор кодека : 55
Идентификатор кодека/Подсказка : MP3
Продолжительность : 1 ч. 12 м.
Вид битрейта : Постоянный
Битрейт : 128 Кбит/сек
Каналы : 2 канала
Частота : 48,0 КГц
Метод сжатия : С потерями
Размер потока : 66,4 Мбайт (10%)
Выравнивание : Соединение по промежуткам
Продолжительность промежутка : 80 мс. (2,00 видеокадра)
Время предзагрузки промежутка : 504 мс.
Библиотека кодирования : LAME3.97
Язык : English



   Похожие торренты   Торрент   Размер 
В этой теме нет новых непрочитанных сообщений. Кенгуру Джекпот / Kangaroo Jack (2003) DVDRip от rfanteam

143 | 17

1.37 ГБ

В этой теме нет новых непрочитанных сообщений. Кенгуру Джекпот / Kangaroo Jack (2003) Web-DL 720p | D

324 | 24

2.99 ГБ

В этой теме нет новых непрочитанных сообщений. Кенгуру Джекпот / Kangaroo Jack (2003) DVD9

52 | 11

4.59 ГБ

В этой теме нет новых непрочитанных сообщений. National Geographic: Возвращение кенгуру / Kangaroo Comeback (1998) DVDRip от LTarik

0 | 3

701 МБ

В этой теме нет новых непрочитанных сообщений. Као Кенгуру Раунд 2 / Kao the Kangaroo Round 2 (2005) PC

72 | 12

787.02 МБ

В этой теме нет новых непрочитанных сообщений. Новые приключения Ниро Вульфа и Арчи Гудвина. Подарок для Лили (2004) DVDRip от Киномагия

27 | 5

1.37 ГБ

В этой теме нет новых непрочитанных сообщений. Новые приключения Ниро Вульфа и Арчи Гудвина. Тайна красной шкатулки (2004) DVDRip от Киномагия

96 | 3

1.37 ГБ




Вы не можете начинать темы
Вы не можете отвечать на сообщения
Вы не можете редактировать свои сообщения
Вы не можете удалять свои сообщения
Вы не можете добавлять вложения

Перейти:  
Для Мосгорсуда, Роскомнадзора и рекламодателей: mosgorsud-torrent[собачка]yandex.ru
 Вход
ppkBB3cker v.2 © 2008-2014 @ PPK
[ Time : 0.054s | 15 Queries | GZIP : Off ]

cron