img image001 image001 image001 image001 image001 image001 image001 image001 image001 image001 image001 image001 image001 image001 image001

Planets Sun Sun Sun
Статистика раздачи
Автор: PriZraK | Размер: 1.34 ГБ | Добавлен: 15 фев 2014
Раздают: 1127    Качают: 45
Скачать торрент
Скачать торрент
Описание торрента

СообщениеДобавлено: 15 фев 2014 



Информация о фильме
Название: Холодное сердце
Оригинальное название: Frozen
Год выпуска: 2013
Жанр: Мультфильм, фэнтези, комедия, приключения, семейный
Выпущено: США
Режиссер: Крис Бак, Дженнифер Ли
В ролях: Кристен Белл, Идина Мензел, Джонатан Грофф, Джош Гад, Сантино Фонтана, Алан Тьюдик, Киаран Хайндс, Крис Уильямс, Стивен Дж. Андерсон, Майа Уилсон


Когда древнее предсказание сбывается и королевство погружается в объятия вечной зимы, трое бесстрашных героев — принцесса Анна, отважный Кристофф и его верный олень Свен — отправляются в горы, чтобы найти сестру Анны, Эльзу, которая может снять со страны леденящее заклятие. По пути их ждет множество увлекательных сюрпризов и захватывающих приключений: встреча с мистическими троллями, знакомство с очаровательным снеговиком по имени Олаф, горные вершины покруче Эвереста и магия в каждой снежинке. Анне и Кристоффу предстоит сплотиться и противостоять могучей стихии, чтобы спасти королевство и тех, кто им дорог…

Файл
Качество: DVDScr
Видео: XviD, 1572 Кбит/с, 720x320
Аудио: Русский (MP3, 2 ch, 128 Кбит/c), английский (MP3, 2 ch, 192 Кбит/c)
Продолжительность: 01:32:27
Перевод: Дублированный | Чистый звук
General
Complete name : Frozen.2013.D.DVDScr.1400MB.avi
Format : AVI
Format/Info : Audio Video Interleave
File size : 1.34 GiB
Duration : 1h 40mn
Overall bit rate : 1 909 Kbps
Writing application : VirtualDubMod 1.5.10.2 (build 2540/release)
Writing library : VirtualDubMod build 2540/release

Video
ID : 0
Format : MPEG-4 Visual
Format profile : Advanced Simple@L5
Format settings, BVOP : 2
Format settings, QPel : No
Format settings, GMC : No warppoints
Format settings, Matrix : Default (H.263)
Muxing mode : Packed bitstream
Codec ID : XVID
Codec ID/Hint : XviD
Duration : 1h 40mn
Bit rate : 1 503 Kbps
Width : 720 pixels
Height : 320 pixels
Display aspect ratio : 2.25:1
Frame rate : 29.970 fps
Color space : YUV
Chroma subsampling : 4:2:0
Bit depth : 8 bits
Scan type : Progressive
Compression mode : Lossy
Bits/(Pixel*Frame) : 0.218
Stream size : 1.06 GiB (79%)
Writing library : XviD 64

Audio #1
ID : 1
Format : MPEG Audio
Format version : Version 1
Format profile : Layer 3
Codec ID : 55
Codec ID/Hint : MP3
Duration : 1h 40mn
Bit rate mode : Constant
Bit rate : 128 Kbps
Channel(s) : 2 channels
Sampling rate : 48.0 KHz
Compression mode : Lossy
Stream size : 92.3 MiB (7%)
Alignment : Aligned on interleaves
Writing library : LAME3.99r
Encoding settings : -m s -V 4 -q 2 -lowpass 17 -b 128

Audio #2
ID : 2
Format : MPEG Audio
Format version : Version 1
Format profile : Layer 3
Mode : Joint stereo
Codec ID : 55
Codec ID/Hint : MP3
Duration : 1h 40mn
Bit rate mode : Constant
Bit rate : 192 Kbps
Channel(s) : 2 channels
Sampling rate : 48.0 KHz
Compression mode : Lossy
Stream size : 138 MiB (10%)
Alignment : Aligned on interleaves
Writing library : LAME3.99r
Encoding settings : -m j -V 4 -q 9 -lowpass 18.6 -b 192



   Похожие торренты   Торрент   Размер 
В этой теме нет новых непрочитанных сообщений. Холодное сердце / Frozen (2013) DVDScr-AVC | Чистый звук

648 | 40

1.87 ГБ

В этой теме нет новых непрочитанных сообщений. Холодное сердце / Frozen (2013) DVDScr | Чистый звук

118 | 11

698.38 МБ

В этой теме нет новых непрочитанных сообщений. Холодное сердце / Frozen (2013) WEB-DLRip | Чистый звук

173 | 4

1.46 ГБ

В этой теме нет новых непрочитанных сообщений. Холодное сердце / Frozen (2013) WEB-DL 720p | Чистый звук

287 | 10

3.33 ГБ

В этой теме нет новых непрочитанных сообщений. Холодное сердце / Frozen (2013) WEB-DLRip | Чистый звук

18 | 3

748.17 МБ

В этой теме нет новых непрочитанных сообщений. Холодное сердце / Frozen (2013) HDRip от Scarabey | D | Чистый звук

378 | 65

1.45 ГБ

В этой теме нет новых непрочитанных сообщений. Холодное сердце / Frozen (2013) HDRip от Scarabey | D | Чистый звук

119 | 36

745.81 МБ




Вы не можете начинать темы
Вы не можете отвечать на сообщения
Вы не можете редактировать свои сообщения
Вы не можете удалять свои сообщения
Вы не можете добавлять вложения

Перейти:  
Для Мосгорсуда, Роскомнадзора и рекламодателей: mosgorsud-torrent[собачка]yandex.ru
 Вход
ppkBB3cker v.2 © 2008-2014 @ PPK
[ Time : 0.044s | 16 Queries | GZIP : Off ]

cron