img image001 image001 image001 image001 image001 image001 image001 image001 image001 image001 image001 image001 image001 image001 image001

Planets Sun Sun Sun
Статистика раздачи
Автор: PriZraK | Размер: 4.1 ГБ | Добавлен: 15 фев 2014
Раздают: 63    Качают: 10
Скачать торрент
Скачать торрент
Описание торрента

СообщениеДобавлено: 15 фев 2014 




Информация о фильме
Название: Муравей Антц
Оригинальное название: Antz
Год выхода: 1998
Жанр: Мультфильм, комедия, приключения, семейный
Режиссер: Эрик Дарнелл, Тим Джонсон
В ролях: Вуди Аллен, Шэрон Стоун, Сильвестр Сталлоне, Дженнифер Лопес, Джин Хэкмен, Энн Бэнкрофт, Кристофер Уокен, Дэн Эйкройд, Дэнни Гловер

О фильме:
Большой муравейник поделен на две части: там живут муравьи-рабочие и муравьи-солдаты. Рабочие трудятся с утра до ночи, а солдаты воюют с термитами под командованием властного и завистливого генерала Мэндибала. Так было всегда. И никому, кроме муравья Антца, работающего на строительстве туннеля, не приходит в голову, что все может быть по-другому. Однажды в бар на танцы тайно приходит принцесса Бала и там знакомится с Антцом. Он влюбляется в красавицу с первого взгляда. Чтобы еще хоть раз увидеть ее, Антц меняется местами с приятелем-солдатом Вивером и отправляется на военный парад не ведая, что ждет его впереди.



Страна: США
Студия: DreamWorks SKG, Pacific Data Images (PDI), DreamWorks Animation
Продолжительность: 01:19:33
Перевод: Дублированный, Профессиональный многоголосый

Файл
Кодек: MPEG-4 AVC
Качество: HDTVRip 1080p
Видео: 6100 Кбит/с, 1920x1080, 25.000 кадр/с
Звук:
Аудио #1: Русский (AC3, 6 ch, 384 Кбит/с) / Дублированный
Аудио #2: Русский (AC3, 6 ch, 448 Кбит/с) / Профессиональный многоголосый
Аудио #3: Английский (AC3, 6 ch, 448 Кбит/с)

Семпл


Общее
Полное имя : Muravej.Antc.1998.x264.HDTVRip(1080p).MediaClub.mkv
Формат : Matroska
Версия формата : Version 2
Размер файла : 4,10 Гбайт
Продолжительность : 1 ч. 19 м.
Общий поток : 7377 Кбит/сек
Дата кодирования : UTC 2014-01-22 19:08:11
Программа кодирования : mkvmerge v5.4.0 ('Piper') built on Mar 10 2012 13:34:39
Библиотека кодирования : libebml v1.2.3 + libmatroska v1.3.0

Видео
Идентификатор : 1
Формат : AVC
Формат/Информация : Advanced Video Codec
Профиль формата : High@L4.1
Параметр CABAC формата : Да
Параметр ReFrames формата : 4 кадра
Идентификатор кодека : V_MPEG4/ISO/AVC
Продолжительность : 1 ч. 19 м.
Битрейт : 6100 Кбит/сек
Ширина : 1920 пикселей
Высота : 1080 пикселей
Соотношение сторон : 16:9
Режим частоты кадров : Постоянный
Частота кадров : 25,000 кадров/сек
Цветовое пространство : YUV
Субдискретизация насыщенности : 4:2:0
Битовая глубина : 8 бит
Тип развёртки : Прогрессивная
Бит/(Пиксели*Кадры) : 0.118
Размер потока : 3,31 Гбайт (81%)
Библиотека кодирования : x264 core 125 r2208 d9d2288
Настройки программы : cabac=1 / ref=4 / deblock=1:-2:-2 / analyse=0x3:0x133 / me=umh / subme=10 / psy=1 / psy_rd=1.00:0.15 / mixed_ref=1 / me_range=32 / chroma_me=1 / trellis=2 / 8x8dct=1 / cqm=0 / deadzone=21,11 / fast_pskip=0 / chroma_qp_offset=-3 / threads=6 / lookahead_threads=1 / sliced_threads=0 / nr=0 / decimate=0 / interlaced=0 / bluray_compat=0 / constrained_intra=0 / bframes=8 / b_pyramid=2 / b_adapt=2 / b_bias=0 / direct=3 / weightb=1 / open_gop=0 / weightp=2 / keyint=250 / keyint_min=25 / scenecut=40 / intra_refresh=0 / rc=2pass / mbtree=0 / bitrate=6100 / ratetol=1.0 / qcomp=0.60 / qpmin=0 / qpmax=69 / qpstep=4 / cplxblur=20.0 / qblur=0.5 / ip_ratio=1.40 / pb_ratio=1.30 / aq=1:0.80
Язык : English
Default : Да
Forced : Нет

Аудио #1
Идентификатор : 2
Формат : AC-3
Формат/Информация : Audio Coding 3
Расширение режима : CM (complete main)
Параметр Endianness формата : Big
Идентификатор кодека : A_AC3
Продолжительность : 1 ч. 19 м.
Вид битрейта : Постоянный
Битрейт : 384 Кбит/сек
Каналы : 6 каналов
Расположение каналов : Front: L C R, Side: L R, LFE
Частота : 48,0 КГц
Битовая глубина : 16 бит
Метод сжатия : С потерями
Задержка видео : 5 с. 0 мс.
Размер потока : 219 Мбайт (5%)
Заголовок : Дублированный
Язык : Russian
Default : Да
Forced : Нет

Аудио #2
Идентификатор : 3
Формат : AC-3
Формат/Информация : Audio Coding 3
Расширение режима : CM (complete main)
Параметр Endianness формата : Big
Идентификатор кодека : A_AC3
Продолжительность : 1 ч. 19 м.
Вид битрейта : Постоянный
Битрейт : 448 Кбит/сек
Каналы : 6 каналов
Расположение каналов : Front: L C R, Side: L R, LFE
Частота : 48,0 КГц
Битовая глубина : 16 бит
Метод сжатия : С потерями
Задержка видео : 5 с. 0 мс.
Размер потока : 255 Мбайт (6%)
Заголовок : Профессиональный многоголосый
Язык : Russian
Default : Нет
Forced : Нет

Аудио #3
Идентификатор : 4
Формат : AC-3
Формат/Информация : Audio Coding 3
Расширение режима : CM (complete main)
Параметр Endianness формата : Big
Идентификатор кодека : A_AC3
Продолжительность : 1 ч. 19 м.
Вид битрейта : Постоянный
Битрейт : 448 Кбит/сек
Каналы : 6 каналов
Расположение каналов : Front: L C R, Side: L R, LFE
Частота : 48,0 КГц
Битовая глубина : 16 бит
Метод сжатия : С потерями
Задержка видео : 5 с. 0 мс.
Размер потока : 255 Мбайт (6%)
Язык : English
Default : Нет
Forced : Нет

Британская академия, 1999 год
Номинации (1):

Лучшие визуальные эффекты


Релиз от:



   Похожие торренты   Торрент   Размер 
В этой теме нет новых непрочитанных сообщений. Муравей Антц / Antz (1998) WEBRip 1080p | D, P, A

0 | 0

6.45 ГБ

В этой теме нет новых непрочитанных сообщений. Муравей Антц / Antz (1998) HDTVRip от Kaztorrents | D

47 | 2

747.4 МБ

В этой теме нет новых непрочитанных сообщений. Муравей Антц / Antz (1998) DVDRip

97 | 9

1.46 ГБ

В этой теме нет новых непрочитанных сообщений. Муравей Антц / Antz (1998) WEBRip-AVC | D, P, A

6 | 1

1.62 ГБ

В этой теме нет новых непрочитанных сообщений. Муравей Антц / Antz (1998) WEBRip | D, P

13 | 0

1.45 ГБ

В этой теме нет новых непрочитанных сообщений. Человек-муравей / Ant-Man (2015) BDRip-AVC от MediaClub | D, A

441 | 13

3.35 ГБ

В этой теме нет новых непрочитанных сообщений. Человек-муравей / Ant-Man (2015) BDRip 1080p | Лицензия

4794 | 298

7.76 ГБ




Вы не можете начинать темы
Вы не можете отвечать на сообщения
Вы не можете редактировать свои сообщения
Вы не можете удалять свои сообщения
Вы не можете добавлять вложения

Перейти:  
Для Мосгорсуда, Роскомнадзора и рекламодателей: mosgorsud-torrent[собачка]yandex.ru
 Вход
ppkBB3cker v.2 © 2008-2014 @ PPK
[ Time : 0.052s | 15 Queries | GZIP : Off ]

Торрент трекер RUTOR.IN, Не можете зайти на rutor.org? Какой новый адрес рутор? Какое зеркало рутор? Не работает rutor.org и зеркала? Тогда наш торрент специально для вас. Rutor.in неофициальное зеркало rutor. В случае если у Вас заблокирован rutor или вдруг Вы не можете на него зайти, то Вы без труда сможете скачать бесплатно и без рекламы последние новинки кино, игр, сериалов и прочего у нас, на Rutor.in. Не нужно использовать прокси, чтобы зайти на рутор, достаточно воспользоваться нашим ресурсом. Все новые фильмы, игры, сериалы, книги и музыка за 2013 и 2014 годы через торрент бесплатно. Скачивайте фильмы в хорошем качестве, игры для пк, xbox, playstation без регистрации. У нас вы найдете новые Зарубежные сериалы и Русские сериалы 2013, 2014, 2015 годов. Оставайтесь с нами, качайте любимые фильмы, игры, сериалы, книги и музыку.
cron