img image001 image001 image001 image001 image001 image001 image001 image001 image001 image001 image001 image001 image001 image001 image001

Planets Sun Sun Sun
Статистика раздачи
Автор: PriZraK | Размер: 2.58 ГБ | Добавлен: 15 фев 2014
Раздают: 55    Качают: 6
Скачать торрент
Скачать торрент
Описание торрента

СообщениеДобавлено: 15 фев 2014 




Информация о фильме
Название: Не бей копытом
Оригинальное название: Home on the Range
Год выхода: 2004
Жанр: Мультфильм
Режиссер: Уилл Финн, Джон Санфорд

О фильме:
Жизнь на ферме проста и привольна. Хозяева и питомцы живут душа в душу, поют песни и веселяться. Но внезапно этой идиллии приходит конец. На смену обанкротившимся владельцам фермы приходит безжалостный делец, желающий продать землю и избавиться от животных. Естественно, это не устраивает привыкших к сладкой жизни четвероногих и пернатых обитателей. Начинается потрясающе смешная «партизанская война». Руководителями бунта выступают конь Бак и три коровы-непоседы, решившие пойти на все, чтобы спасти ферму от разорения…



Страна: США
Студия: Walt Disney Feature Animation
Продолжительность: 01:16:12
Перевод: Дублированный, профессиональный многоголосый, профессиональный двухголосый, авторский одноголосый

Файл
Кодек: h264
Качество: BDRip-AVC
Видео: MPEG-4 AVC, 2738 Кбит/с, 1024x576, 23.976 кадр/с

Звук:
• №1: Русский (AC3, 6 ch, 384 Кбит/с) Дублированный [Невафильм (R5)]
• №2: Русский (AC3, 6 ch, 384 Кбит/с) Профессиональный многоголосый
• №3: Русский (AC3, 6 ch, 384 Кбит/с) Профессиональный двухголосый [Tycoon]
• №4: Русский (AC3, 6 ch, 384 Кбит/с) Авторский одноголосый [Сергей Визгунов]
• №5: Украинский (AC3, 2 ch, 192 Кбит/с) Дублированный [ЛєДоуен]
• №6: Английский (AC3, 6 ch, 384 Кбит/с)

Субтитры:
• Русские (форсированные)
• Русские (полные [R5])
• Русские (полные [Tycoon])
• Английские (полные)
• Английские (SDH)

--------------------------------------------------------------------------
x264 [info]: frame I:1250 Avg QP:13.97 size: 98164
x264 [info]: frame P:29792 Avg QP:16.49 size: 25712
x264 [info]: frame B:78587 Avg QP:18.12 size: 8606
--------------------------------------------------------------------------

Полное имя : Home.on.the.Range.2004.x264.BDRip-AVC.0ptimus.mkv
Формат : Matroska
Версия формата : Version 2
Размер файла : 2,58 Гбайт
Продолжительность : 1 ч. 16 м.
Общий поток : 4854 Кбит/сек
Название фильма : Не бей копытом / Home on the Range [2004] -=BDRip (AVC) by 0ptimus=-
Дата кодирования : UTC 2014-01-22 13:20:33
Программа кодирования : mkvmerge v6.7.0 ('Back to the Ground') 32bit built on Jan 8 2014 15:03:17
Библиотека кодирования : libebml v1.3.0 + libmatroska v1.4.1

Видео
Идентификатор : 1
Формат : AVC
Формат/Информация : Advanced Video Codec
Профиль формата : High@L4.1
Параметр CABAC формата : Да
Параметр ReFrames формата : 10 кадров
Идентификатор кодека : V_MPEG4/ISO/AVC
Продолжительность : 1 ч. 16 м.
Битрейт : 2738 Кбит/сек
Ширина : 1024 пикселя
Высота : 576 пикселей
Соотношение сторон : 16:9
Режим частоты кадров : Постоянный
Частота кадров : 23,976 кадра/сек
Цветовое пространство : YUV
Субдискретизация насыщенности : 4:2:0
Битовая глубина : 8 бит
Тип развёртки : Прогрессивная
Бит/(Пиксели*Кадры) : 0.194
Размер потока : 1,41 Гбайт (54%)
Заголовок : Rip by 0ptimus
Библиотека кодирования : x264 core 125 r2208 d9d2288
Настройки программы : cabac=1 / ref=10 / deblock=1:-2:-1 / analyse=0x3:0x113 / me=umh / subme=11 / psy=1 / psy_rd=1.00:0.20 / mixed_ref=1 / me_range=32 / chroma_me=1 / trellis=2 / 8x8dct=1 / cqm=0 / deadzone=21,11 / fast_pskip=0 / chroma_qp_offset=-3 / threads=4 / lookahead_threads=1 / sliced_threads=0 / nr=0 / decimate=0 / interlaced=0 / bluray_compat=0 / constrained_intra=0 / bframes=8 / b_pyramid=2 / b_adapt=2 / b_bias=0 / direct=3 / weightb=1 / open_gop=0 / weightp=2 / keyint=240 / keyint_min=23 / scenecut=40 / intra_refresh=0 / rc_lookahead=40 / rc=2pass / mbtree=0 / bitrate=2738 / ratetol=1.0 / qcomp=0.60 / qpmin=0 / qpmax=69 / qpstep=4 / cplxblur=20.0 / qblur=0.5 / vbv_maxrate=50000 / vbv_bufsize=50000 / nal_hrd=none / ip_ratio=1.40 / pb_ratio=1.30 / aq=1:1.00
Язык : English
Default : Да
Forced : Да

Аудио #1
Идентификатор : 2
Формат : AC-3
Формат/Информация : Audio Coding 3
Расширение режима : CM (complete main)
Параметр Endianness формата : Big
Идентификатор кодека : A_AC3
Продолжительность : 1 ч. 16 м.
Вид битрейта : Постоянный
Битрейт : 384 Кбит/сек
Каналы : 6 каналов
Расположение каналов : Front: L C R, Side: L R, LFE
Частота : 48,0 КГц
Битовая глубина : 16 бит
Метод сжатия : С потерями
Размер потока : 209 Мбайт (8%)
Заголовок : Дублированный [Невафильм (R5)] AC3 5.1 @ 384 kbps
Язык : Russian
Default : Да
Forced : Да

Аудио #2
Идентификатор : 3
Формат : AC-3
Формат/Информация : Audio Coding 3
Расширение режима : CM (complete main)
Параметр Endianness формата : Big
Идентификатор кодека : A_AC3
Продолжительность : 1 ч. 16 м.
Вид битрейта : Постоянный
Битрейт : 384 Кбит/сек
Каналы : 6 каналов
Расположение каналов : Front: L C R, Side: L R, LFE
Частота : 48,0 КГц
Битовая глубина : 16 бит
Метод сжатия : С потерями
Размер потока : 209 Мбайт (8%)
Заголовок : Многоголосый закадровый AC3 5.1 @ 384 kbps
Язык : Russian
Default : Нет
Forced : Нет

Аудио #3
Идентификатор : 4
Формат : AC-3
Формат/Информация : Audio Coding 3
Расширение режима : CM (complete main)
Параметр Endianness формата : Big
Идентификатор кодека : A_AC3
Продолжительность : 1 ч. 16 м.
Вид битрейта : Постоянный
Битрейт : 384 Кбит/сек
Каналы : 6 каналов
Расположение каналов : Front: L C R, Side: L R, LFE
Частота : 48,0 КГц
Битовая глубина : 16 бит
Метод сжатия : С потерями
Размер потока : 209 Мбайт (8%)
Заголовок : Двухголосый закадровый [Tycoon] AC3 5.1 @ 384 kbps
Язык : Russian
Default : Нет
Forced : Нет

Аудио #4
Идентификатор : 5
Формат : AC-3
Формат/Информация : Audio Coding 3
Расширение режима : CM (complete main)
Параметр Endianness формата : Big
Идентификатор кодека : A_AC3
Продолжительность : 1 ч. 16 м.
Вид битрейта : Постоянный
Битрейт : 384 Кбит/сек
Каналы : 6 каналов
Расположение каналов : Front: L C R, Side: L R, LFE
Частота : 48,0 КГц
Битовая глубина : 16 бит
Метод сжатия : С потерями
Размер потока : 209 Мбайт (8%)
Заголовок : Авторский [Сергей Визгунов] AC3 5.1 @ 384 kbps
Язык : Russian
Default : Нет
Forced : Нет

Аудио #5
Идентификатор : 6
Формат : AC-3
Формат/Информация : Audio Coding 3
Расширение режима : CM (complete main)
Параметр Endianness формата : Big
Идентификатор кодека : A_AC3
Продолжительность : 1 ч. 16 м.
Вид битрейта : Постоянный
Битрейт : 192 Кбит/сек
Каналы : 1 канал
Расположение каналов : Front: C
Частота : 48,0 КГц
Битовая глубина : 16 бит
Метод сжатия : С потерями
Размер потока : 105 Мбайт (4%)
Заголовок : Дублированный [Лєдоуен] AC3 2.0 @ 192 kbps
Язык : Ukrainian
Default : Нет
Forced : Нет

Аудио #6
Идентификатор : 7
Формат : AC-3
Формат/Информация : Audio Coding 3
Расширение режима : CM (complete main)
Параметр Endianness формата : Big
Идентификатор кодека : A_AC3
Продолжительность : 1 ч. 16 м.
Вид битрейта : Постоянный
Битрейт : 384 Кбит/сек
Каналы : 6 каналов
Расположение каналов : Front: L C R, Side: L R, LFE
Частота : 48,0 КГц
Битовая глубина : 16 бит
Метод сжатия : С потерями
Размер потока : 209 Мбайт (8%)
Заголовок : AC3 5.1 @ 384 kbps
Язык : English
Default : Нет
Forced : Нет

Текст #1
Идентификатор : 8
Формат : UTF-8
Идентификатор кодека : S_TEXT/UTF8
Идентификатор кодека/Информация : UTF-8 Plain Text
Заголовок : Форсированные
Язык : Russian
Default : Нет
Forced : Нет

Текст #2
Идентификатор : 9
Формат : UTF-8
Идентификатор кодека : S_TEXT/UTF8
Идентификатор кодека/Информация : UTF-8 Plain Text
Заголовок : R5
Язык : Russian
Default : Нет
Forced : Нет

Текст #3
Идентификатор : 10
Формат : UTF-8
Идентификатор кодека : S_TEXT/UTF8
Идентификатор кодека/Информация : UTF-8 Plain Text
Заголовок : Tycoon
Язык : Russian
Default : Нет
Forced : Нет

Текст #4
Идентификатор : 11
Формат : UTF-8
Идентификатор кодека : S_TEXT/UTF8
Идентификатор кодека/Информация : UTF-8 Plain Text
Язык : English
Default : Нет
Forced : Нет

Текст #5
Идентификатор : 12
Формат : UTF-8
Идентификатор кодека : S_TEXT/UTF8
Идентификатор кодека/Информация : UTF-8 Plain Text
Заголовок : SDH
Язык : English
Default : Нет
Forced : Нет

Меню
00:00:00.000 : en:1. "Home on the Range"
00:02:28.815 : en:2. "A Little Patch of Heaven"
00:05:32.832 : en:3. Meet Maggie
00:08:23.211 : en:4. Foreclosure
00:11:19.929 : en:5. Save the Farm
00:13:50.204 : en:6. Grace Notes
00:14:58.439 : en:7. Buck's Dream
00:16:56.140 : en:8. City Slickers
00:19:47.770 : en:9. Bounty Hunting
00:24:08.072 : en:10. Ranch Auction
00:25:34.825 : en:11. Bum Steers
00:27:14.258 : en:12. "Yodel-Adle-Eedle-Idle-Oo"
00:30:01.591 : en:13. Partner or No Partner
00:34:05.335 : en:14. Every Last Acre Counts
00:36:57.090 : en:15. Up for Bid
00:39:05.176 : en:16. Flash Flood
00:42:25.418 : en:17. "Will the Sun Ever Shine Again?"
00:44:38.426 : en:18. Lucky Jack - Desert Sage
00:48:10.012 : en:19. "Home on the Range" Reprise
00:48:40.459 : en:20. Wesley Arrives
00:49:50.154 : en:21. Cows Only
00:51:49.606 : en:22. A Simple Plan
00:55:15.312 : en:23. Get Slim!
00:57:59.351 : en:24. Buck's Turn
01:02:54.270 : en:25. To the Rescue
01:03:46.740 : en:26. The Showdown
01:08:10.336 : en:27. Home, Sweet Home
01:09:49.560 : en:28. "Wherever the Trail May Lead" (End Credits)
01:13:18.603 : en:29. "Anytime You Need a Friend"




Релиз от:



   Похожие торренты   Торрент   Размер 
В этой теме нет новых непрочитанных сообщений. Не бей копытом / Home on the Range (2004) BDRip-AVC от 0ptimus | D, P, P2, A

4 | 1

2.58 ГБ

В этой теме нет новых непрочитанных сообщений. Не бей копытом / Home on the Range (2004) BDRip 1080p

15 | 7

4.38 ГБ

В этой теме нет новых непрочитанных сообщений. Не бей копытом / Home on the Range (2004) BDRip от HQCLUB

74 | 3

1.45 ГБ

В этой теме нет новых непрочитанных сообщений. Не бей копытом / Home on the Range (2004) BDRip 720p от HDClub | D, P, P2, A

36 | 6

4.24 ГБ

В этой теме нет новых непрочитанных сообщений. Не бей копытом / Home on the Range (2004) HDTVRip-AVC от R.G. AVI | AVC

30 | 3

1.46 ГБ

В этой теме нет новых непрочитанных сообщений. Не бей копытом / Home On The Range (2004) DVDRip

111 | 2

1.37 ГБ

В этой теме нет новых непрочитанных сообщений. Не бей копытом / Ферма в прериях / Home on the Range (2004) HDTV 1080i

0 | 2

5.39 ГБ




Вы не можете начинать темы
Вы не можете отвечать на сообщения
Вы не можете редактировать свои сообщения
Вы не можете удалять свои сообщения
Вы не можете добавлять вложения

Перейти:  
Для Мосгорсуда, Роскомнадзора и рекламодателей: mosgorsud-torrent[собачка]yandex.ru
 Вход
ppkBB3cker v.2 © 2008-2014 @ PPK
[ Time : 0.024s | 14 Queries | GZIP : Off ]

Торрент трекер RUTOR.IN, Не можете зайти на rutor.org? Какой новый адрес рутор? Какое зеркало рутор? Не работает rutor.org и зеркала? Тогда наш торрент специально для вас. Rutor.in неофициальное зеркало rutor. В случае если у Вас заблокирован rutor или вдруг Вы не можете на него зайти, то Вы без труда сможете скачать бесплатно и без рекламы последние новинки кино, игр, сериалов и прочего у нас, на Rutor.in. Не нужно использовать прокси, чтобы зайти на рутор, достаточно воспользоваться нашим ресурсом. Все новые фильмы, игры, сериалы, книги и музыка за 2013 и 2014 годы через торрент бесплатно. Скачивайте фильмы в хорошем качестве, игры для пк, xbox, playstation без регистрации. У нас вы найдете новые Зарубежные сериалы и Русские сериалы 2013, 2014, 2015 годов. Оставайтесь с нами, качайте любимые фильмы, игры, сериалы, книги и музыку.