img image001 image001 image001 image001 image001 image001 image001 image001 image001 image001 image001 image001 image001 image001 image001

Planets Sun Sun Sun
Статистика раздачи
Автор: PriZraK | Размер: 8.05 ГБ | Добавлен: 15 фев 2014
Раздают: 2    Качают: 4
Скачать торрент
Скачать торрент
Описание торрента

СообщениеДобавлено: 15 фев 2014 


Год выпуска: 2012
Страна: Россия
Жанр: мультсериал
Продолжительность: 13 минут - серия

Перевод: не требуется
Субтитры: нет

Режиссеры: Алексей Горбунов, Наталья Мирзоян, Джангир Сулейманов

В ролях (озвучка): Ксения Бржезовская, Антон Виноградов, Сергей Мардарь, Светлана Письмиченко, Михаил Черняк, Андрей Лёвин

Описание: Смешарики: Пин-код — это спин-офф мультсериала Смешарики, целью которого является формирование интереса к изобретательству, техническому творчеству и науке у детей от 4 до 14 лет.



Исходник: DVD5 R5
Качество: DVDRip
Формат: AVI

Видео: от 688x400 (1.720:1) до 720x400 (16:9), 25.000 fps, XViD ~ 2000 kbps avg, 0.290 bit/pixel
Аудио: 48 kHz, АС3 2 ch, 192 kbps, русский

Раздача от:
Диск 01: Пинкод: Наноняни (2012)
01. Наноняни
02. Принцесса в поиске
03. Силуэт на снегу
04. Пин-песчинка
05. Отель "У веселого альпиниста"

Диск 02: Пинкод: ДНК (2012)
01. ДНК
02. Очень большая штука
03. Горшочек, не вари
04. Жажда скорости
05. Ураган на спор

Диск 03: Пинкод: Солнечный бриз (2012)
01. Солнечный бриз
02. Почему
03. Энцелад
04. Метатыква
05. Совунья-хранительница

Диск 04: Пинкод: Параллельный мир (2012)
01. Параллельный мир
02. Электробритва
03. У медведя на уме
04. Сверхпроводимость и немного любви
05. Они могут обойтись и без нас

Диск 05: Пинкод: Второе солнце (2012)
01. Второе солнце
02. Переломный момент
03. Мыльная опера на все времена
04. Испытание
05. Малышка на миллион

Диск 06: Пинкод: Светосила искусства (2012)
01. Светосила искусства
02. Сказка для Биби
03. Уши для Ушарика
04. Нечто
05. Диета для Вселенной

Диск 07: Пинкод: Комарилья (2012)
01. Комарилья
02. Таймер на тысячу лет
03. Прививка от Кроша. Первая серия
04. Прививка от Кроша. Вторая серия
05. Бортовой дневник

Диск 08: Пинкод: Секрет совершенства (2012)
01. Секрет совершенства
02. То, что нельзя объяснить
03. В наилучшем виде
04. Рефлексия
05. Вредитель

General
Complete name : Smeshariki.PinKod.2013.O.DVDRip_[Youtracker]_by_avproh4.Parallelnyi.mir1.avi
Format : AVI
Format/Info : Audio Video Interleave
File size : 205 MiB
Duration : 13mn 0s
Overall bit rate : 2 208 Kbps
Writing application : VirtualDubModRus 1.5.10.2 (build 2542/release)
Writing library : VirtualDubMod build 2542/release

Video
ID : 0
Format : MPEG-4 Visual
Format profile : Advanced Simple@L5
Format settings, BVOP : 1
Format settings, QPel : No
Format settings, GMC : No warppoints
Format settings, Matrix : Custom
Codec ID : XVID
Codec ID/Hint : XviD
Duration : 13mn 0s
Bit rate : 2 006 Kbps
Width : 688 pixels
Height : 400 pixels
Display aspect ratio : 1.720
Frame rate : 25.000 fps
Color space : YUV
Chroma subsampling : 4:2:0
Bit depth : 8 bits
Scan type : Progressive
Compression mode : Lossy
Bits/(Pixel*Frame) : 0.292
Stream size : 187 MiB (91%)
Writing library : XviD 73

Audio
ID : 1
Format : AC-3
Format/Info : Audio Coding 3
Mode extension : CM (complete main)
Format settings, Endianness : Big
Codec ID : 2000
Duration : 12mn 59s
Bit rate mode : Constant
Bit rate : 192 Kbps
Channel count : 2 channels
Channel positions : Front: L R
Sampling rate : 48.0 KHz
Bit depth : 16 bits
Compression mode : Lossy
Stream size : 17.9 MiB (9%)
Alignment : Split accross interleaves
Interleave, duration : 40 ms (1.00 video frame)
Interleave, preload duration : 500 ms



Торрент перезалит 23 января 2014 года, добавлено 15 серий с трех DVD5



   Похожие торренты   Торрент   Размер 
В этой теме нет новых непрочитанных сообщений. Смешарики. Пин-код [1 - 46 из 52] DVDRip-AVC от New-Team | лицензия

93 | 34

9.21 ГБ

В этой теме нет новых непрочитанных сообщений. Смешарики. Пин-код [1 - 40 из ?] DVDRip-AVC от New-Team | лицензия

4 | 6

8.01 ГБ

В этой теме нет новых непрочитанных сообщений. Смешарики. Пин-код [1 - 46 из 52] DVDRip от New-Team | лицензия

43 | 14

9.26 ГБ

В этой теме нет новых непрочитанных сообщений. Смешарики. Пин-код [01 - 52 из 52] (2012-2014) DVDRip от New-Team | лицензия

688 | 287

10.46 ГБ

В этой теме нет новых непрочитанных сообщений. Смешарики. Пин-код [01 - 52 из 52] (2012-2014) DVDRip-AVC от New-Team | лицензия

2080 | 357

10.4 ГБ

В этой теме нет новых непрочитанных сообщений. Смешарики. Новые приключения [01-40 из ?] + 6 бонусов (2013) DVDRip-AVC от New-Team | лицензия

68 | 15

6.61 ГБ

В этой теме нет новых непрочитанных сообщений. Смешарики. Новые приключения [01-40 из ?] + 6 бонусов (2013) DVDRip от New-Team | лицензия

86 | 22

6.63 ГБ




Вы не можете начинать темы
Вы не можете отвечать на сообщения
Вы не можете редактировать свои сообщения
Вы не можете удалять свои сообщения
Вы не можете добавлять вложения

Перейти:  
Для Мосгорсуда, Роскомнадзора и рекламодателей: mosgorsud-torrent[собачка]yandex.ru
 Вход
ppkBB3cker v.2 © 2008-2014 @ PPK
[ Time : 0.560s | 16 Queries | GZIP : Off ]

Торрент трекер RUTOR.IN, Не можете зайти на rutor.org? Какой новый адрес рутор? Какое зеркало рутор? Не работает rutor.org и зеркала? Тогда наш торрент специально для вас. Rutor.in неофициальное зеркало rutor. В случае если у Вас заблокирован rutor или вдруг Вы не можете на него зайти, то Вы без труда сможете скачать бесплатно и без рекламы последние новинки кино, игр, сериалов и прочего у нас, на Rutor.in. Не нужно использовать прокси, чтобы зайти на рутор, достаточно воспользоваться нашим ресурсом. Все новые фильмы, игры, сериалы, книги и музыка за 2013 и 2014 годы через торрент бесплатно. Скачивайте фильмы в хорошем качестве, игры для пк, xbox, playstation без регистрации. У нас вы найдете новые Зарубежные сериалы и Русские сериалы 2013, 2014, 2015 годов. Оставайтесь с нами, качайте любимые фильмы, игры, сериалы, книги и музыку.
cron