img image001 image001 image001 image001 image001 image001 image001 image001 image001 image001 image001 image001 image001 image001 image001

Planets Sun Sun Sun
Статистика раздачи
Автор: PriZraK | Размер: 1.45 ГБ | Добавлен: 15 фев 2014
Раздают: 3    Качают: 2
Скачать торрент
Скачать торрент
Описание торрента

СообщениеДобавлено: 15 фев 2014 




Страна: США / Metro-Goldwyn-Mayer Animation
Жанр: мультфильм, мюзикл, приключения, семейный
Год выпуска: 1998
Продолжительность: 01:05:39

Перевод: профессиональный (многоголосый закадровый)
Cубтитры: русский, английский
Оригинальная аудиодорожка: английский

Режиссер: Дик Сэбаст / Dick Sebast

В ролях: Дарлин Карр, Джэми Кронин, Дом ДеЛуис, Эндрю Дюкоут, Филлип Глассер, Эрик Айдл, Уитни Клер Кауфман, Харви Кормен, Ральф Маччио, Стив Мэккалл...

Описание: Мышонок Тимми Бризби, младший сын Джонатана Бризби, который однажды уже спас всех из страшного места под названием Н. И. М. Х. Но есть одна проблема: Тимми — новичок.
Так что ему сначала необходимо пройти Курс N 101 для обучения героев. Он упражняется в «Змеином патрулировании» и многом другом, но еще перед сдачей выпускного экзамена Тимми приходится проверить свои новые знания.
Дело в том, что мышке Дженни нужна помощь в спасении ее родителей из Н. И. М. Х., из места, которое угрожает всем жителям Долины Репейников.
Справится с Н. И. М. Х. — это очень сложная работа для такого маленького мышонка, но Тимми принимает вызов и доказывает, что неважно какого ты размера, любой может стать героем.



Качество: DVDRip / DVD5 R5
Формат: AVI

Видео: 720x544 (4:3), 25.000 fps, XVID ~2257 kbps avg, 0.230 bit/pixel
Аудио 1: Русский 48 kHz, АС3, 6 ch, 448 kbps Constant
Аудио 2: Английский 48 kHz, АС3, 6 ch, 448 kbps Constant
Формат субтитров: SoftSub (srt)

Раздача от:
Общее
Полное имя : Sekret.N.I.M.H.2.1998.P.DVDRip_[New-Team]_by_avproh.avi
Формат : AVI
Формат/Информация : Audio Video Interleave
Размер файла : 1,45 Гбайт
Продолжительность : 1 ч. 5 м.
Общий поток : 3167 Кбит/сек
Программа кодирования : VirtualDubModRus 1.5.10.2 (build 2542/release)
Библиотека кодирования : VirtualDubMod build 2542/release

Видео
Идентификатор : 0
Формат : MPEG-4 Visual
Профиль формата : Advanced Simple@L5
Параметр BVOP формата : 1
Параметр QPel формата : Нет
Параметр GMC формата : Без точки перехода
Параметр матрицы формата : Выборочная
Идентификатор кодека : XVID
Идентификатор кодека/Подсказка : XviD
Продолжительность : 1 ч. 5 м.
Битрейт : 2257 Кбит/сек
Ширина : 720 пикселей
Высота : 544 пикселя
Соотношение сторон : 4:3
Частота кадров : 25,000 кадров/сек
Цветовое пространство : YUV
Субдискретизация насыщенности : 4:2:0
Битовая глубина : 8 бит
Тип развёртки : Прогрессивная
Метод сжатия : С потерями
Бит/(Пиксели*Кадры) : 0.230
Размер потока : 1,03 Гбайт (71%)
Библиотека кодирования : XviD 73

Аудио #1
Идентификатор : 1
Формат : AC-3
Формат/Информация : Audio Coding 3
Расширение режима : CM (complete main)
Параметр Endianness формата : Big
Идентификатор кодека : 2000
Продолжительность : 1 ч. 5 м.
Вид битрейта : Постоянный
Битрейт : 448 Кбит/сек
Каналы : 6 каналов
Расположение каналов : Front: L C R, Side: L R, LFE
Частота : 48,0 КГц
Битовая глубина : 16 бит
Метод сжатия : С потерями
Задержка видео : 1 с. 0 мс.
Размер потока : 210 Мбайт (14%)
Выравнивание : Разделение по промежуткам
Продолжительность промежутка : 40 мс. (1,00 видеокадр)
Время предзагрузки промежутка : 500 мс.

Аудио #2
Идентификатор : 2
Формат : AC-3
Формат/Информация : Audio Coding 3
Расширение режима : CM (complete main)
Параметр Endianness формата : Big
Идентификатор кодека : 2000
Продолжительность : 1 ч. 5 м.
Вид битрейта : Постоянный
Битрейт : 448 Кбит/сек
Каналы : 6 каналов
Расположение каналов : Front: L C R, Side: L R, LFE
Частота : 48,0 КГц
Битовая глубина : 16 бит
Метод сжатия : С потерями
Размер потока : 210 Мбайт (14%)
Выравнивание : Разделение по промежуткам
Продолжительность промежутка : 40 мс. (1,00 видеокадр)
Время предзагрузки промежутка : 500 мс.





   Похожие торренты   Торрент   Размер 
В этой теме нет новых непрочитанных сообщений. Секрет Н.И.М.Х. 1 - 2 / The Secret of NIMH; The Secret of NIMH 2: Timmy to the Rescue (1982-1998) 2xDVD5 от New-Team | D, P | Лицензия

95 | 33

7.35 ГБ

В этой теме нет новых непрочитанных сообщений. Секрет Н.И.М.Х. 2 / The Secret of NIMH 2: Timmy to the Rescue (1998) DVDRip-AVC от New-Team | P

23 | 3

1.45 ГБ

В этой теме нет новых непрочитанных сообщений. Секрет Н.И.М.Х. / Секрет Крыс / The Secret of NIMH (1982) BDRip-AVC от AVCurtain

48 | 8

2.69 ГБ

В этой теме нет новых непрочитанных сообщений. Секрет Н.И.М.Х. / Секрет Крыс / The Secret of NIMH (1982) BDRip 1080p

3 | 4

5.9 ГБ

В этой теме нет новых непрочитанных сообщений. Секрет Н.И.М.Х. / Секрет Крыс / The Secret of NIMH (1982) BDRemux 1080p

0 | 2

17.55 ГБ

В этой теме нет новых непрочитанных сообщений. Секрет Н.И.М.Х. / Секрет Крыс / The Secret of NIMH (1982) BDRip от HQCLUB

57 | 11

1.46 ГБ

В этой теме нет новых непрочитанных сообщений. Секрет Н.И.М.Х. / Секрет Крыс / The Secret of NIMH (1982) BDRip 720p

1 | 2

8.13 ГБ




Вы не можете начинать темы
Вы не можете отвечать на сообщения
Вы не можете редактировать свои сообщения
Вы не можете удалять свои сообщения
Вы не можете добавлять вложения

Перейти:  
Для Мосгорсуда, Роскомнадзора и рекламодателей: mosgorsud-torrent[собачка]yandex.ru
 Вход
ppkBB3cker v.2 © 2008-2014 @ PPK
[ Time : 0.051s | 18 Queries | GZIP : Off ]

Торрент трекер RUTOR.IN, Не можете зайти на rutor.org? Какой новый адрес рутор? Какое зеркало рутор? Не работает rutor.org и зеркала? Тогда наш торрент специально для вас. Rutor.in неофициальное зеркало rutor. В случае если у Вас заблокирован rutor или вдруг Вы не можете на него зайти, то Вы без труда сможете скачать бесплатно и без рекламы последние новинки кино, игр, сериалов и прочего у нас, на Rutor.in. Не нужно использовать прокси, чтобы зайти на рутор, достаточно воспользоваться нашим ресурсом. Все новые фильмы, игры, сериалы, книги и музыка за 2013 и 2014 годы через торрент бесплатно. Скачивайте фильмы в хорошем качестве, игры для пк, xbox, playstation без регистрации. У нас вы найдете новые Зарубежные сериалы и Русские сериалы 2013, 2014, 2015 годов. Оставайтесь с нами, качайте любимые фильмы, игры, сериалы, книги и музыку.
cron