img image001 image001 image001 image001 image001 image001 image001 image001 image001 image001 image001 image001 image001 image001 image001

Planets Sun Sun Sun
Статистика раздачи
Автор: PriZraK | Размер: 1.45 ГБ | Добавлен: 15 фев 2014
Раздают: 21    Качают: 3
Скачать торрент
Скачать торрент
Описание торрента

СообщениеДобавлено: 15 фев 2014 




Страна: США / Metro-Goldwyn-Mayer Animation
Жанр: мультфильм, мюзикл, приключения, семейный
Год выпуска: 1998
Продолжительность: 01:05:39

Перевод: профессиональный (многоголосый закадровый)
Cубтитры: русский, английский
Оригинальная аудиодорожка: английский

Режиссер: Дик Сэбаст / Dick Sebast

В ролях: Дарлин Карр, Джэми Кронин, Дом ДеЛуис, Эндрю Дюкоут, Филлип Глассер, Эрик Айдл, Уитни Клер Кауфман, Харви Кормен, Ральф Маччио, Стив Мэккалл...

Описание: Мышонок Тимми Бризби, младший сын Джонатана Бризби, который однажды уже спас всех из страшного места под названием Н. И. М. Х. Но есть одна проблема: Тимми — новичок.
Так что ему сначала необходимо пройти Курс N 101 для обучения героев. Он упражняется в «Змеином патрулировании» и многом другом, но еще перед сдачей выпускного экзамена Тимми приходится проверить свои новые знания.
Дело в том, что мышке Дженни нужна помощь в спасении ее родителей из Н. И. М. Х., из места, которое угрожает всем жителям Долины Репейников.
Справится с Н. И. М. Х. — это очень сложная работа для такого маленького мышонка, но Тимми принимает вызов и доказывает, что неважно какого ты размера, любой может стать героем.



Качество: DVDRip-AVC / DVD5 R5
Формат: MKV

Видео: 720x572@752x572 (4:3), 25.000 fps, H264 ~2262 kbps avg, 0.220 bit/pixel
Аудио 1: Русский 48 kHz, АС3, 6 ch, 448 kbps Constant
Аудио 2: Английский 48 kHz, АС3, 6 ch, 448 kbps Constant
Формат субтитров: SoftSub (srt)

Раздача от:
Общее
Полное имя : Sekret.N.I.M.H.2.1998.P.DVDRip-AVC_[New-Team]_by_avproh.mkv
Формат : Matroska
Версия формата : Version 4 / Version 2
Размер файла : 1,45 Гбайт
Продолжительность : 1 ч. 5 м.
Общий поток : 3160 Кбит/сек
Дата кодирования : UTC 2014-01-24 21:13:03
Программа кодирования : mkvmerge v6.7.0 ('Back to the Ground') 64bit built on Jan 8 2014 15:10:52
Библиотека кодирования : libebml v1.3.0 + libmatroska v1.4.1

Видео
Идентификатор : 1
Формат : AVC
Формат/Информация : Advanced Video Codec
Профиль формата : High@L4.1
Параметр CABAC формата : Да
Параметр ReFrames формата : 6 кадров
Идентификатор кодека : V_MPEG4/ISO/AVC
Продолжительность : 1 ч. 5 м.
Битрейт : 2262 Кбит/сек
Ширина : 720 пикселей
Высота : 572 пикселя
Соотношение сторон : 4:3
Соотношение сторон в оригинале : 4:3
Режим частоты кадров : Постоянный
Частота кадров : 25,000 кадров/сек
Цветовое пространство : YUV
Субдискретизация насыщенности : 4:2:0
Битовая глубина : 8 бит
Тип развёртки : Прогрессивная
Бит/(Пиксели*Кадры) : 0.220
Размер потока : 1,01 Гбайт (70%)
Библиотека кодирования : x264 core 138 r2356 a1d3d17
Настройки программы : cabac=1 / ref=6 / deblock=1:-2:-1 / analyse=0x3:0x113 / me=umh / subme=10 / psy=1 / psy_rd=1.00:0.05 / mixed_ref=1 / me_range=32 / chroma_me=1 / trellis=2 / 8x8dct=1 / cqm=0 / deadzone=21,11 / fast_pskip=0 / chroma_qp_offset=-3 / threads=9 / lookahead_threads=1 / sliced_threads=0 / nr=0 / decimate=0 / interlaced=0 / bluray_compat=0 / constrained_intra=0 / bframes=8 / b_pyramid=2 / b_adapt=2 / b_bias=0 / direct=3 / weightb=1 / open_gop=0 / weightp=2 / keyint=250 / keyint_min=25 / scenecut=40 / intra_refresh=0 / rc=2pass / mbtree=0 / bitrate=2262 / ratetol=1.0 / qcomp=0.60 / qpmin=0 / qpmax=69 / qpstep=4 / cplxblur=20.0 / qblur=0.5 / ip_ratio=1.40 / pb_ratio=1.30 / aq=1:1.00
Язык : English
Default : Да
Forced : Нет

Аудио #1
Идентификатор : 2
Формат : AC-3
Формат/Информация : Audio Coding 3
Расширение режима : CM (complete main)
Параметр Endianness формата : Big
Идентификатор кодека : A_AC3
Продолжительность : 1 ч. 5 м.
Вид битрейта : Постоянный
Битрейт : 448 Кбит/сек
Каналы : 6 каналов
Расположение каналов : Front: L C R, Side: L R, LFE
Частота : 48,0 КГц
Битовая глубина : 16 бит
Метод сжатия : С потерями
Размер потока : 210 Мбайт (14%)
Язык : Russian
Default : Да
Forced : Нет

Аудио #2
Идентификатор : 3
Формат : AC-3
Формат/Информация : Audio Coding 3
Расширение режима : CM (complete main)
Параметр Endianness формата : Big
Идентификатор кодека : A_AC3
Продолжительность : 1 ч. 5 м.
Вид битрейта : Постоянный
Битрейт : 448 Кбит/сек
Каналы : 6 каналов
Расположение каналов : Front: L C R, Side: L R, LFE
Частота : 48,0 КГц
Битовая глубина : 16 бит
Метод сжатия : С потерями
Задержка видео : 1 с. 0 мс.
Размер потока : 210 Мбайт (14%)
Язык : English
Default : Нет
Forced : Нет

Текст #1
Идентификатор : 4
Формат : UTF-8
Идентификатор кодека : S_TEXT/UTF8
Идентификатор кодека/Информация : UTF-8 Plain Text
Язык : Russian
Default : Нет
Forced : Нет

Текст #2
Идентификатор : 5
Формат : UTF-8
Идентификатор кодека : S_TEXT/UTF8
Идентификатор кодека/Информация : UTF-8 Plain Text
Язык : English
Default : Нет
Forced : Нет





   Похожие торренты   Торрент   Размер 
В этой теме нет новых непрочитанных сообщений. Секрет Н.И.М.Х. 1 - 2 / The Secret of NIMH; The Secret of NIMH 2: Timmy to the Rescue (1982-1998) 2xDVD5 от New-Team | D, P | Лицензия

96 | 33

7.35 ГБ

В этой теме нет новых непрочитанных сообщений. Секрет Н.И.М.Х. 2 / The Secret of NIMH 2: Timmy to the Rescue (1998) DVDRip от New-Team | P

5 | 3

1.45 ГБ

В этой теме нет новых непрочитанных сообщений. Секрет Н.И.М.Х. / Секрет Крыс / The Secret of NIMH (1982) BDRip-AVC от AVCurtain

48 | 8

2.69 ГБ

В этой теме нет новых непрочитанных сообщений. Секрет Н.И.М.Х. / Секрет Крыс / The Secret of NIMH (1982) BDRip 720p

1 | 2

8.13 ГБ

В этой теме нет новых непрочитанных сообщений. Секрет Н.И.М.Х. / Секрет Крыс / The Secret of NIMH (1982) BDRemux 1080p

0 | 2

17.55 ГБ

В этой теме нет новых непрочитанных сообщений. Секрет Н.И.М.Х. / Секрет Крыс / The Secret of NIMH (1982) BDRip 1080p

3 | 4

5.9 ГБ

В этой теме нет новых непрочитанных сообщений. Секрет Н.И.М.Х. / Секрет Крыс / The Secret of NIMH (1982) BDRip от HQCLUB

57 | 11

1.46 ГБ




Вы не можете начинать темы
Вы не можете отвечать на сообщения
Вы не можете редактировать свои сообщения
Вы не можете удалять свои сообщения
Вы не можете добавлять вложения

Перейти:  
Для Мосгорсуда, Роскомнадзора и рекламодателей: mosgorsud-torrent[собачка]yandex.ru
 Вход
ppkBB3cker v.2 © 2008-2014 @ PPK
[ Time : 0.243s | 16 Queries | GZIP : Off ]

Торрент трекер RUTOR.IN, Не можете зайти на rutor.org? Какой новый адрес рутор? Какое зеркало рутор? Не работает rutor.org и зеркала? Тогда наш торрент специально для вас. Rutor.in неофициальное зеркало rutor. В случае если у Вас заблокирован rutor или вдруг Вы не можете на него зайти, то Вы без труда сможете скачать бесплатно и без рекламы последние новинки кино, игр, сериалов и прочего у нас, на Rutor.in. Не нужно использовать прокси, чтобы зайти на рутор, достаточно воспользоваться нашим ресурсом. Все новые фильмы, игры, сериалы, книги и музыка за 2013 и 2014 годы через торрент бесплатно. Скачивайте фильмы в хорошем качестве, игры для пк, xbox, playstation без регистрации. У нас вы найдете новые Зарубежные сериалы и Русские сериалы 2013, 2014, 2015 годов. Оставайтесь с нами, качайте любимые фильмы, игры, сериалы, книги и музыку.
cron