img image001 image001 image001 image001 image001 image001 image001 image001 image001 image001 image001 image001 image001 image001 image001

Planets Sun Sun Sun
Статистика раздачи
Автор: PriZraK | Размер: 9.87 ГБ | Добавлен: 15 фев 2014
Раздают: 406    Качают: 30
Скачать торрент
Скачать торрент
Описание торрента

СообщениеДобавлено: 15 фев 2014 




Информация
Название: Космические спасатели лейтенанта Марша
Оригинальное название: Exosquad
Год выхода: 1993-1994
Жанр: Научная фантастика, приключения
Режиссер: Джефф Сигал

Описание:
"Используя невиданные доселе конструкции под названием "Эхолёты", мы успешно начали создание почвенного покрова на Венере и Марсе, и накапливали силы для перемещения на планеты дальних миров. Как вдруг всему этому настал конец. Мы были втянуты в ужасную войну невообразимого ранее масштаба. На нас напали наши собственные создания - неосапианты. Расы искусственно созданных людей под предводительством Фэйтона захватили власть на Венере, Марсе и Земле.
Лейтенант Джей Ти Марш - один из бойцов Эхофлота, командир небольшого отряда космолётчиков, посвятивших свои жизни делу освобождения человечества от власти неосапиантов."

Страна: США
Продолжительность: 52 x ∼22мин
Перевод:
Аудио 1: Русский - дублированный
Аудио 2: Английский - оригинал

Файл
Формат: m4v
Кодек: H.264

Сезон 1: DVDRip-AVC
Видео: : 640x480, ∼1100 kbps, 23,976 fps
Звук: AAC, 2 channels, 48.0 KHz, 192 kbps

Сезон 2: WEB-DL
Видео: : 640x480, ∼900 kbps, 29,97 fps
Звук: AAC, 2 channels, 48.0 KHz, 128 kbps

Метатэги: Прописаны

Раздача будет полезна пользователям iOS и OS X платформ.
При просмотре на Windows рекомендую пользоваться iTunes или VLC media player.


1 сезон 1 серия

General
Format : MPEG-4
Codec ID : M4V
File size : 230 MiB
Duration : 21mn 42s
Overall bit rate mode : Variable
Overall bit rate : 1 480 Kbps
Season : 1
Movie name : Exosquad
Album : Exosquad, Season 1
Part : 1
Track name/Position : 1
Performer : Exosquad
Genre : Animation, Children, Drama, Science-Fiction
ContentType : TV Show
Deion : A future without hunger or need is torn to pieces, when the genetically engineered servant race, the Neo-Sapiens, restart a 50 year old war of independence as a war of conquest, seizing control of the Earth and the Venus colony. Now the humans' only hope of freedom lies with the remains of the Exofleet, and their top unit - Able Squad.
Recorded date : 1993-09-18
Encoded date : UTC 2014-01-25 15:56:27
Tagged date : UTC 2014-01-25 15:56:37
Cover : Yes
Rating : None
TVNetworkName : Syndicated
Part_ID : 101
LongDeion : A series of raids on commerce vessels prompts the Earth Homeworlds' General Assembly to send the entire Exofleet to wipe out the pirates once and for all.

Video
ID : 1
Format : AVC
Format/Info : Advanced Video Codec
Format profile : High@L4.1
Format settings, CABAC : Yes
Format settings, ReFrames : 4 frames
Codec ID : avc1
Codec ID/Info : Advanced Video Coding
Duration : 21mn 39s
Bit rate mode : Variable
Bit rate : 1 093 Kbps
Width : 640 pixels
Height : 480 pixels
Display aspect ratio : 4:3
Frame rate mode : Variable
Frame rate : 23.976 fps
Minimum frame rate : 23.810 fps
Maximum frame rate : 24.390 fps
Color space : YUV
Chroma subsampling : 4:2:0
Bit depth : 8 bits
Scan type : Progressive
Bits/(Pixel*Frame) : 0.148
Stream size : 169 MiB (74%)
Writing library : x264 core 115 r1937 aa21558
Encoding settings : cabac=1 / ref=3 / deblock=1:0:0 / analyse=0x3:0x113 / me=hex / subme=7 / psy=1 / psy_rd=1.00:0.00 / mixed_ref=1 / me_range=16 / chroma_me=1 / trellis=1 / 8x8dct=1 / cqm=0 / deadzone=21,11 / fast_pskip=1 / chroma_qp_offset=-2 / threads=3 / sliced_threads=0 / nr=0 / decimate=1 / interlaced=0 / bluray_compat=0 / constrained_intra=0 / bframes=3 / b_pyramid=2 / b_adapt=1 / b_bias=0 / direct=1 / weightb=1 / open_gop=0 / weightp=2 / keyint=250 / keyint_min=23 / scenecut=40 / intra_refresh=0 / rc_lookahead=40 / rc=2pass / mbtree=1 / bitrate=1093 / ratetol=1.0 / qcomp=0.70 / qpmin=0 / qpmax=69 / qpstep=4 / cplxblur=20.0 / qblur=0.5 / vbv_maxrate=50000 / vbv_bufsize=50000 / nal_hrd=none / ip_ratio=1.40 / aq=1:0.60
Language : English
Encoded date : UTC 2014-01-25 15:56:27
Tagged date : UTC 2014-01-25 15:56:37

Audio #1
ID : 2
Format : AAC
Format/Info : Advanced Audio Codec
Format profile : LC
Codec ID : 40
Duration : 21mn 42s
Bit rate mode : Variable
Bit rate : 192 Kbps
Maximum bit rate : 199 Kbps
Channel count : 2 channels
Channel positions : Front: L R
Sampling rate : 44.1 KHz
Compression mode : Lossy
Delay relative to video : 84ms
Stream size : 29.4 MiB (13%)
Language : Russian
Encoded date : UTC 2014-01-25 15:56:27
Tagged date : UTC 2014-01-25 15:56:37

Audio #2
ID : 3
Format : AAC
Format/Info : Advanced Audio Codec
Format profile : LC
Codec ID : 40
Duration : 21mn 39s
Bit rate mode : Variable
Bit rate : 192 Kbps
Maximum bit rate : 220 Kbps
Channel count : 2 channels
Channel positions : Front: L R
Sampling rate : 48.0 KHz
Compression mode : Lossy
Delay relative to video : 84ms
Stream size : 29.8 MiB (13%)
Language : English
Encoded date : UTC 2014-01-25 15:56:27
Tagged date : UTC 2014-01-25 15:56:37

2 сезон 1 серия

General
Format : MPEG-4
Codec ID : M4V
File size : 180 MiB
Duration : 22mn 9s
Overall bit rate mode : Variable
Overall bit rate : 1 137 Kbps
Season : 2
Movie name : Exosquad
Album : Exosquad, Season 2
Part : 1
Track name/Position : 1
Performer : Exosquad
Genre : Animation, Children, Drama, Science-Fiction
ContentType : TV Show
Deion : A future without hunger or need is torn to pieces, when the genetically engineered servant race, the Neo-Sapiens, restart a 50 year old war of independence as a war of conquest, seizing control of the Earth and the Venus colony. Now the humans' only hope of freedom lies with the remains of the Exofleet, and their top unit - Able Squad.
Recorded date : 1994-09-12
Encoded date : UTC 2014-01-26 10:47:01
Tagged date : UTC 2014-01-26 10:47:06
Cover : Yes
Rating : None
TVNetworkName : Syndicated
Part_ID : 201
LongDeion : The resistance from Earth gathers at the base on IO. / Tyree the leader of the Australian resistance is introduced (he makes an impact later on) / Sean Napier is appointed as the head of Earth's resistance. Most of the leaders agree to submit to the authority of the Exo-Fleet for the sake of liberating earth.

Video
ID : 1
Format : AVC
Format/Info : Advanced Video Codec
Format profile : High@L5.1
Format settings, CABAC : Yes
Format settings, ReFrames : 6 frames
Muxing mode : Container profile=High@4.1
Codec ID : avc1
Codec ID/Info : Advanced Video Coding
Duration : 22mn 9s
Bit rate mode : Variable
Bit rate : 905 Kbps
Width : 640 pixels
Height : 480 pixels
Display aspect ratio : 4:3
Frame rate mode : Variable
Frame rate : 29.970 fps
Minimum frame rate : 29.412 fps
Maximum frame rate : 30.303 fps
Color space : YUV
Chroma subsampling : 4:2:0
Bit depth : 8 bits
Scan type : Progressive
Bits/(Pixel*Frame) : 0.098
Stream size : 143 MiB (80%)
Language : English
Encoded date : UTC 2014-01-26 10:47:01
Tagged date : UTC 2014-01-26 10:47:06

Audio #1
ID : 2
Format : AAC
Format/Info : Advanced Audio Codec
Format profile : LC
Codec ID : 40
Duration : 22mn 9s
Bit rate mode : Variable
Bit rate : 128 Kbps
Maximum bit rate : 136 Kbps
Channel count : 2 channels
Channel positions : Front: L R
Sampling rate : 44.1 KHz
Compression mode : Lossy
Delay relative to video : 68ms
Stream size : 20.3 MiB (11%)
Language : Russian
Encoded date : UTC 2014-01-26 10:47:01
Tagged date : UTC 2014-01-26 10:47:06

Audio #2
ID : 3
Format : AAC
Format/Info : Advanced Audio Codec
Format profile : LC
Codec ID : 40
Duration : 22mn 9s
Bit rate mode : Variable
Bit rate : 96.0 Kbps
Maximum bit rate : 130 Kbps
Channel count : 2 channels
Channel positions : Front: L R
Sampling rate : 44.1 KHz
Compression mode : Lossy
Delay relative to video : 68ms
Stream size : 15.2 MiB (8%)
Language : English
Encoded date : UTC 2014-01-26 10:47:01
Tagged date : UTC 2014-01-26 10:47:06



   Похожие торренты   Торрент   Размер 
В этой теме нет новых непрочитанных сообщений. Космические спасатели лейтенанта Марша / Exo-Squad [S01-02] (1993-1994) DVDRip,SATRip

42 | 12

15.33 ГБ

В этой теме нет новых непрочитанных сообщений. Симпсоны / The Simpsons [S05] (1993-1994) DVDRip-AVC от AEZ

73 | 67

7.46 ГБ

В этой теме нет новых непрочитанных сообщений. Фрейзер / Frasier [S01] (1993-1994) DVDRip | P

32 | 26

4.61 ГБ

В этой теме нет новых непрочитанных сообщений. Неприкасаемые / The Untouchables [01x01-06 из 18] (1993-1994) DVDRip

7 | 2

2.31 ГБ

В этой теме нет новых непрочитанных сообщений. Футбол. Лига чемпионов 1993-1994. Финал. Милан (Италия) - Барселона (Испания) (1994) TVRip

0 | 11

4.13 ГБ

В этой теме нет новых непрочитанных сообщений. Тень / The Shadow (1994) BDRip-AVC | iPhone | P

19 | 40

1.81 ГБ

В этой теме нет новых непрочитанных сообщений. Элен и ребята / Helene et les garcons [201-254 из 280] (1993-1994) DVDRip

3 | 10

23.75 ГБ




Вы не можете начинать темы
Вы не можете отвечать на сообщения
Вы не можете редактировать свои сообщения
Вы не можете удалять свои сообщения
Вы не можете добавлять вложения

Перейти:  
Для Мосгорсуда, Роскомнадзора и рекламодателей: mosgorsud-torrent[собачка]yandex.ru
 Вход
ppkBB3cker v.2 © 2008-2014 @ PPK
[ Time : 0.044s | 15 Queries | GZIP : Off ]

cron