img image001 image001 image001 image001 image001 image001 image001 image001 image001 image001 image001 image001 image001 image001 image001

Planets Sun Sun Sun
Статистика раздачи
Автор: PriZraK | Размер: 753.14 МБ | Добавлен: 15 фев 2014
Раздают: 31    Качают: 2
Скачать торрент
Скачать торрент
Описание торрента

СообщениеДобавлено: 15 фев 2014 


Информация о фильме
Название: Хитрая лисичка
Оригинальное название: The Cunning Little Vixen
Год выхода: 2003
Жанр: мультфильм
Режиссер: Джофф Данбар
В ролях: Christine Buffle, Грант Дойл, Мэтт Бэйкер, Ричард Коксон, Кил Уотсон

О фильме:
В мультфильме рассказывается о жизни лисы Остроушки, еще детенышем пойманной лесником, повзрослевшей в его доме и сбежавшей обратно в лес. Благодаря своей природной хитрости, Остроушка ловко обводит вокруг пальца других животных и даже людей.



Страна: Великобритания
Студия: British Broadcasting Corporation (BBC), High Eagle Productions
Продолжительность: 00:58:02
Перевод: Профессиональный (многоголосый закадровый)

Файл
Кодек: XviD
Качество: DVDRip
Видео: 608x336 (16:9), 1224 Kbps, 25.000 fps
Звук:
Russian; MP3, 48.0 kHz, 1 ch, 128 Kbps, CBR
English; AC-3, 48.0 kHz, 5.1 ch, 448 Kbps, CBR
Субтитры: нет

SAMPLE

Релиз от: romagoth

Общее
Полное имя : The Cunning Little Vixen 2003 rus eng.avi
Формат : AVI
Формат/Информация : Audio Video Interleave
Размер файла : 753 Мбайт
Продолжительность : 58 м.
Общий поток : 1814 Кбит/сек
Программа кодирования : VirtualDubMod 1.5.10.2 (build 2540/release)
Библиотека кодирования : VirtualDubMod build 2540/release

Видео
Идентификатор : 0
Формат : MPEG-4 Visual
Профиль формата : Advanced Simple@L5
Параметр BVOP формата : 2
Параметр QPel формата : Нет
Параметр GMC формата : Без точки перехода
Параметр матрицы формата : Default (H.263)
Идентификатор кодека : XVID
Идентификатор кодека/Подсказка : XviD
Продолжительность : 58 м.
Битрейт : 1224 Кбит/сек
Ширина : 608 пикселей
Высота : 336 пикселей
Соотношение сторон : 16:9
Частота кадров : 25,000 кадров/сек
Цветовое пространство : YUV
Субдискретизация насыщенности : 4:2:0
Битовая глубина : 8 бит
Тип развёртки : Прогрессивная
Метод сжатия : С потерями
Бит/(Пиксели*Кадры) : 0.240
Размер потока : 508 Мбайт (67%)
Библиотека кодирования : XviD 1.2.1 (UTC 2008-12-04)

Аудио #1
Идентификатор : 1
Формат : MPEG Audio
Версия формата : Version 1
Профиль формата : Layer 3
Идентификатор кодека : 55
Идентификатор кодека/Подсказка : MP3
Продолжительность : 58 м.
Вид битрейта : Постоянный
Битрейт : 128 Кбит/сек
Каналы : 1 канал
Частота : 48,0 КГц
Метод сжатия : С потерями
Размер потока : 53,1 Мбайт (7%)
Выравнивание : Соединение по промежуткам
Продолжительность промежутка : 40 мс. (1,00 видеокадр)
Время предзагрузки промежутка : 504 мс.
Библиотека кодирования : LAME3.96r
Настройки программы : -m m -V 4 -q 3 -lowpass 20.5 -b 128

Аудио #2
Идентификатор : 2
Формат : AC-3
Формат/Информация : Audio Coding 3
Расширение режима : CM (complete main)
Параметр Endianness формата : Big
Идентификатор кодека : 2000
Продолжительность : 58 м.
Вид битрейта : Постоянный
Битрейт : 448 Кбит/сек
Каналы : 6 каналов
Расположение каналов : Front: L C R, Side: L R, LFE
Частота : 48,0 КГц
Битовая глубина : 16 бит
Метод сжатия : С потерями
Размер потока : 186 Мбайт (25%)
Выравнивание : Разделение по промежуткам
Продолжительность промежутка : 40 мс. (1,00 видеокадр)
Время предзагрузки промежутка : 500 мс.



   Похожие торренты   Торрент   Размер 
В этой теме нет новых непрочитанных сообщений. Хитрая ворона (1980) DVDRip

18 | 18

113.67 МБ

В этой теме нет новых непрочитанных сообщений. Девочка-Лисичка / Yeu woo bi / Yobi, the Five Tailed Fox (2007) DVDRip

195 | 3

1.46 ГБ

В этой теме нет новых непрочитанных сообщений. Девочка-Лисичка / Yeu woo bi / Yobi, the Five Tailed Fox (2007) DVDRip

19 | 5

743.25 МБ

В этой теме нет новых непрочитанных сообщений. Лисичка Хэлен / Kogitsune Heren (2006) DVDRip

91 | 38

1.37 ГБ

В этой теме нет новых непрочитанных сообщений. Сумасшедшие трюки & Велосипедные ниндзя / Dirty tricks & cunning stunt's (2005) DVDRip

2 | 1

700.3 МБ

В этой теме нет новых непрочитанных сообщений. Металлика - Концерт в Техасе 97 (Диск 1) / Metallica - Cunning Stunts 97 (Part 1) (1998) DVDRip

68 | 7

928.74 МБ

В этой теме нет новых непрочитанных сообщений. Металлика - Концерт в Техасе 97 (Диск 2) / Metallica - Cunning Stunts 97 (Part 2) (1998) DVDRip

56 | 9

272.76 МБ




Вы не можете начинать темы
Вы не можете отвечать на сообщения
Вы не можете редактировать свои сообщения
Вы не можете удалять свои сообщения
Вы не можете добавлять вложения

Перейти:  
Для Мосгорсуда, Роскомнадзора и рекламодателей: mosgorsud-torrent[собачка]yandex.ru
 Вход
ppkBB3cker v.2 © 2008-2014 @ PPK
[ Time : 0.053s | 15 Queries | GZIP : Off ]

cron