img image001 image001 image001 image001 image001 image001 image001 image001 image001 image001 image001 image001 image001 image001 image001

Planets Sun Sun Sun
Статистика раздачи
Автор: PriZraK | Размер: 1.61 ГБ | Добавлен: 15 фев 2014
Раздают: 39    Качают: 4
Скачать торрент
Скачать торрент
Описание торрента

СообщениеДобавлено: 15 фев 2014 




Информация о фильме
Название: Кумба
Оригинальное название: Khumba
Год выхода: 2013
Жанр: мультфильм, приключения, семейный
Режиссер: Энтони Силверстон
В ролях: Джейк Т. Остин, Лиам Нисон, Стив Бушеми, Анна-София Робб, Лоренс Фишбёрн, Грег Эллис, Ричард Э. Грант, Кэтрин Тейт, Чарльз Адлер, Ди Брэдли Бейкер

О фильме: Зебра Кумба с самого рождения был посмешищем всего стада из-за того, что родился наполовину полосатым, а наполовину белым. Хуже того, когда началась Великая Засуха, сородичи решили, что он проклят, и в нем причина всех бед. Стадо изгнало Кумбу, и даже отец отвернулся от него! Отважная полуполосатая зебра отправляется в опасные и веселые приключения, чтобы найти недостающие полоски и заслужить уважение семьи…



Выпущено: ЮАР
Продолжительность: 01:25:18
Озвучивание: Дублированное / Любительское (одноголосое) [VANO]

Файл
Кодек: H264
Качество: HDRip (AVC)
Видео: MPEG-4 AVC, 1424 Кбит/с, 1024x424, 23.976 кадр/с
Звук: Russian: AC3, 448 Kb/s (6 ch) [Dub] / Russian: AC3, 384 Kb/s (6 ch) [L1] / English: AC3, 448 Kb/s (6 ch)

General
Unique ID : 236764040835804550329723181411630041175 (0xB21F18793D82DDCFB6B4C7D053A3C857)
Complete name : C:Kumba.2013.D.L1.HDRip.AVC.ExKinoRay.mkv
Format : Matroska
Format version : Version 2
File size : 1.61 GiB
Duration : 1h 25mn
Overall bit rate : 2 706 Kbps
Movie name : Khumba - ExKinoRay by Enigma-Vladislav71
Encoded date : UTC 2014-01-28 06:20:40
Writing application : mkvmerge v3.3.0 ('Language') built on Mar 24 2010 14:59:24
Writing library : libebml v0.8.0 + libmatroska v0.9.0

Video
ID : 1
Format : AVC
Format/Info : Advanced Video Codec
Format profile : High@L4.1
Format settings, CABAC : Yes
Format settings, ReFrames : 8 frames
Codec ID : V_MPEG4/ISO/AVC
Duration : 1h 25mn
Bit rate : 1 424 Kbps
Width : 1 024 pixels
Height : 424 pixels
Display aspect ratio : 2.40:1
Frame rate mode : Constant
Frame rate : 23.976 fps
Color space : YUV
Chroma subsampling : 4:2:0
Bit depth : 8 bits
Scan type : Progressive
Bits/(Pixel*Frame) : 0.137
Stream size : 837 MiB (51%)
Writing library : x264 core 116 r2044 392e762
Encoding settings : cabac=1 / ref=8 / deblock=1:-2:-1 / analyse=0x3:0x113 / me=umh / subme=9 / psy=1 / psy_rd=1.00:0.20 / mixed_ref=1 / me_range=32 / chroma_me=1 / trellis=2 / 8x8dct=1 / cqm=0 / deadzone=21,11 / fast_pskip=0 / chroma_qp_offset=-3 / threads=12 / sliced_threads=0 / nr=0 / decimate=0 / interlaced=0 / bluray_compat=0 / constrained_intra=0 / bframes=8 / b_pyramid=2 / b_adapt=2 / b_bias=0 / direct=3 / weightb=1 / open_gop=0 / weightp=2 / keyint=240 / keyint_min=23 / scenecut=40 / intra_refresh=0 / rc_lookahead=50 / rc=2pass / mbtree=1 / bitrate=1424 / ratetol=1.0 / qcomp=0.60 / qpmin=0 / qpmax=69 / qpstep=4 / cplxblur=20.0 / qblur=0.5 / ip_ratio=1.40 / aq=1:1.00
Default : No
Forced : No

Audio #1
ID : 2
Format : AC-3
Format/Info : Audio Coding 3
Mode extension : CM (complete main)
Format settings, Endianness : Big
Codec ID : A_AC3
Duration : 1h 25mn
Bit rate mode : Constant
Bit rate : 448 Kbps
Channel(s) : 6 channels
Channel positions : Front: L C R, Side: L R, LFE
Sampling rate : 48.0 KHz
Bit depth : 16 bits
Compression mode : Lossy
Stream size : 273 MiB (17%)
Title : Дублированный
Language : Russian
Default : No
Forced : No

Audio #2
ID : 3
Format : AC-3
Format/Info : Audio Coding 3
Mode extension : CM (complete main)
Format settings, Endianness : Big
Codec ID : A_AC3
Duration : 1h 25mn
Bit rate mode : Constant
Bit rate : 384 Kbps
Channel(s) : 6 channels
Channel positions : Front: L C R, Side: L R, LFE
Sampling rate : 48.0 KHz
Bit depth : 16 bits
Compression mode : Lossy
Stream size : 234 MiB (14%)
Title : Любительский одноголoсый (vano)
Language : Russian
Default : No
Forced : No

Audio #3
ID : 4
Format : AC-3
Format/Info : Audio Coding 3
Mode extension : CM (complete main)
Format settings, Endianness : Big
Codec ID : A_AC3
Duration : 1h 25mn
Bit rate mode : Constant
Bit rate : 448 Kbps
Channel(s) : 6 channels
Channel positions : Front: L C R, Side: L R, LFE
Sampling rate : 48.0 KHz
Bit depth : 16 bits
Compression mode : Lossy
Stream size : 273 MiB (17%)
Title : English
Language : English
Default : No
Forced : No







Релиз от:

Авторы релиза:



   Похожие торренты   Торрент   Размер 
В этой теме нет новых непрочитанных сообщений. Кумба / Khumba (2013) BDRemux 1080p от ExKinoRay | D, L1

30 | 25

16.43 ГБ

В этой теме нет новых непрочитанных сообщений. Кумба / Khumba (2013) HDRip | L1

191 | 3

1.37 ГБ

В этой теме нет новых непрочитанных сообщений. Кумба / Khumba (2013) HDRip от R. G. Jolly Roger | D

1524 | 40

1.46 ГБ

В этой теме нет новых непрочитанных сообщений. Кумба / Khumba (2013) HDRip от R. G. Jolly Roger | D

167 | 6

745.08 МБ

В этой теме нет новых непрочитанных сообщений. Кумба / Khumba (2013) HDRip-AVC от R. G. Jolly Roger | D

243 | 17

1.47 ГБ

В этой теме нет новых непрочитанных сообщений. Кумба / Khumba (2013) BDRip 1080p

745 | 156

4.37 ГБ

В этой теме нет новых непрочитанных сообщений. Кумба / Khumba (2013) BDRip-AVC | iPhone | D

60 | 8

974.51 МБ




Вы не можете начинать темы
Вы не можете отвечать на сообщения
Вы не можете редактировать свои сообщения
Вы не можете удалять свои сообщения
Вы не можете добавлять вложения

Перейти:  
Для Мосгорсуда, Роскомнадзора и рекламодателей: mosgorsud-torrent[собачка]yandex.ru
 Вход
ppkBB3cker v.2 © 2008-2014 @ PPK
[ Time : 0.324s | 14 Queries | GZIP : Off ]

Торрент трекер RUTOR.IN, Не можете зайти на rutor.org? Какой новый адрес рутор? Какое зеркало рутор? Не работает rutor.org и зеркала? Тогда наш торрент специально для вас. Rutor.in неофициальное зеркало rutor. В случае если у Вас заблокирован rutor или вдруг Вы не можете на него зайти, то Вы без труда сможете скачать бесплатно и без рекламы последние новинки кино, игр, сериалов и прочего у нас, на Rutor.in. Не нужно использовать прокси, чтобы зайти на рутор, достаточно воспользоваться нашим ресурсом. Все новые фильмы, игры, сериалы, книги и музыка за 2013 и 2014 годы через торрент бесплатно. Скачивайте фильмы в хорошем качестве, игры для пк, xbox, playstation без регистрации. У нас вы найдете новые Зарубежные сериалы и Русские сериалы 2013, 2014, 2015 годов. Оставайтесь с нами, качайте любимые фильмы, игры, сериалы, книги и музыку.