img image001 image001 image001 image001 image001 image001 image001 image001 image001 image001 image001 image001 image001 image001 image001

Planets Sun Sun Sun
Статистика раздачи
Автор: PriZraK | Размер: 746.56 МБ | Добавлен: 15 фев 2014
Раздают: 123    Качают: 10
Скачать торрент
Скачать торрент
Описание торрента

СообщениеДобавлено: 15 фев 2014 


Новая принцесса выходит в свет!



Страна: США
Жанр: мультфильм, фэнтези, семейный
Год выпуска: 2012
Продолжительность: 00:45:37

Перевод: Профессиональный (полное дублирование)
Оригинальная аудиодорожка: английский
Cубтитры: нет

Режиссеры: Джэми Митчелл, Сэм Ригел, Ларри Лэйчлитер / Jamie Mitchell, Sam Riegel, Larry Leichliter

Роли озвучивали: Эриель Винтер, Дарси Роуз Бернс, Зак Каллисон, Сара Рамирес, Тим Ганн, Трэвис Уиллингэм, Коко Грэйсон, Уэйн Брэди, Джим Каммингс, Джесс Харнелл...

Роли дублировали: Варвара Доронина, Светлана Кузнецова, Олег Фёдоров, Валерий Соловьев, Алексей Макрецкий...

Описание:
В одном далеком-предалеком королевстве рука об руку правят волшебство и веселье! Знакомьтесь — София Прекрасная, очаровательная маленькая принцесса, которой предстоит впервые выйти в свет.
После того, как мама Софии выходит замуж за короля, девочка становится принцессой. И вот уже маленькая София мчится в Академию по подготовке королевских особ, где строгие преподаватели научат ее всему, что нужно знать принцессе. Но сможет ли София научиться колдовать и подружится ли она со своей новой сводной сестрой? Ей помогут доброта, говорящие животные и советы особенной гостьи Академии — знаменитой Золушки...





Исходник: DVD9 R5
Тип релиза: DVDRip
Контейнер: AVI

Видео: 720х400, (16:9), 25 fps, XviD ~ 1889 kbps, 0.262 bit/pixel
Аудио: 48 kHz, Dolby AC3, 2 ch, 192.00 kbps Русский DUB
Аудио: 48 kHz, Dolby AC3, 2 ch, 192.00 kbps Английский

Раздача от:
Общее
Полное имя : E:Tracker2014София Прекрасная. История принцессыSofiya.Prekrasnaya.2012.DVDRip_[New-team]_by_AVP_Studio.avi
Формат : AVI
Формат/Информация : Audio Video Interleave
Размер файла : 747 Мбайт
Продолжительность : 45 м.
Общий поток : 2287 Кбит/сек
Программа кодирования : VirtualDubModRus 1.5.10.2 (build 2542/release)
Библиотека кодирования : VirtualDubMod build 2542/release

Видео
Идентификатор : 0
Формат : MPEG-4 Visual
Профиль формата : Advanced Simple@L5
Параметр BVOP формата : 1
Параметр QPel формата : Нет
Параметр GMC формата : Без точки перехода
Параметр матрицы формата : Выборочная
Идентификатор кодека : XVID
Идентификатор кодека/Подсказка : XviD
Продолжительность : 45 м.
Битрейт : 1889 Кбит/сек
Ширина : 720 пикселей
Высота : 400 пикселей
Соотношение сторон : 16:9
Частота кадров : 25,000 кадров/сек
Цветовое пространство : YUV
Субдискретизация насыщенности : 4:2:0
Битовая глубина : 8 бит
Тип развёртки : Прогрессивная
Метод сжатия : С потерями
Бит/(Пиксели*Кадры) : 0.262
Размер потока : 616 Мбайт (83%)
Библиотека кодирования : XviD 73

Аудио #1
Идентификатор : 1
Формат : AC-3
Формат/Информация : Audio Coding 3
Профиль формата : Dolby Digital
Расширение режима : CM (complete main)
Параметр Endianness формата : Big
Идентификатор кодека : 2000
Продолжительность : 45 м.
Вид битрейта : Постоянный
Битрейт : 192 Кбит/сек
Каналы : 2 канала
Расположение каналов : Front: L R
Частота : 48,0 КГц
Битовая глубина : 16 бит
Метод сжатия : С потерями
Размер потока : 62,7 Мбайт (8%)
Выравнивание : Разделение по промежуткам
Продолжительность промежутка : 40 мс. (1,00 видеокадр)
Время предзагрузки промежутка : 500 мс.

Аудио #2
Идентификатор : 2
Формат : AC-3
Формат/Информация : Audio Coding 3
Профиль формата : Dolby Digital
Расширение режима : CM (complete main)
Параметр Endianness формата : Big
Идентификатор кодека : 2000
Продолжительность : 45 м.
Вид битрейта : Постоянный
Битрейт : 192 Кбит/сек
Каналы : 2 канала
Расположение каналов : Front: L R
Частота : 48,0 КГц
Битовая глубина : 16 бит
Метод сжатия : С потерями
Размер потока : 62,7 Мбайт (8%)
Выравнивание : Разделение по промежуткам
Продолжительность промежутка : 40 мс. (1,00 видеокадр)
Время предзагрузки промежутка : 500 мс





   Похожие торренты   Торрент   Размер 
В этой теме нет новых непрочитанных сообщений. София Прекрасная: История принцессы / Sofia the First: Once Upon a Princess (2012) DVDRip-AVC от New-Team

48 | 3

744.86 МБ

В этой теме нет новых непрочитанных сообщений. София Прекрасная: История принцессы / Sofia the First: Once Upon a Princess (2012) DVD9 от New-Team | D | Лицензия

66 | 14

4.6 ГБ

В этой теме нет новых непрочитанных сообщений. София Прекрасная: История принцессы / Sofia the First: Once Upon a Princess (2012) DVD5 от New-Team | D | Сжатый

48 | 19

4.23 ГБ

В этой теме нет новых непрочитанных сообщений. София Прекрасная / Sofia the First [01x01-05] (2012) DVDRip-AVC от New-Team

55 | 6

1.46 ГБ

В этой теме нет новых непрочитанных сообщений. София Прекрасная / Sofia the First [01x01-05] (2012) DVDRip от New-Team

68 | 2

1.46 ГБ

В этой теме нет новых непрочитанных сообщений. София Прекрасная / Sofia the First [01x01-09 из 24] (2012) DVDRip-AVC от New-Team

38 | 21

2.91 ГБ

В этой теме нет новых непрочитанных сообщений. София Прекрасная / Sofia the First [01x01-09] (2012-2013) DVDRip от New-Team

75 | 30

2.93 ГБ




Вы не можете начинать темы
Вы не можете отвечать на сообщения
Вы не можете редактировать свои сообщения
Вы не можете удалять свои сообщения
Вы не можете добавлять вложения

Перейти:  
Для Мосгорсуда, Роскомнадзора и рекламодателей: mosgorsud-torrent[собачка]yandex.ru
 Вход
ppkBB3cker v.2 © 2008-2014 @ PPK
[ Time : 0.080s | 16 Queries | GZIP : Off ]

cron