img image001 image001 image001 image001 image001 image001 image001 image001 image001 image001 image001 image001 image001 image001 image001

Planets Sun Sun Sun
Статистика раздачи
Автор: PriZraK | Размер: 1.07 ГБ | Добавлен: 15 фев 2014
Раздают: 39    Качают: 9
Скачать торрент
Скачать торрент
Описание торрента

СообщениеДобавлено: 15 фев 2014 



Информация о фильме
Название: Симпсоны в кино
Оригинальное название: The Simpsons Movie
Год выхода: 2007
Жанр: мультфильм, комедия, приключения
Режиссер: Дэвид Силверман
В ролях: Дэн Кастелланета, Джули Кавнер, Нэнси Картрайт, Ярдли Смит, Гарри Ширер, Хэнк Азария, Марсия Уоллес, Билли Джо Армстронг, Тре Кул, Майк Дирнт

О фильме:
После того, как Гомер сбросил отходы в водохранилище, Спрингфилд объявили карантинной зоной и накрыли гигантским стеклянным колпаком, а местные жители ополчились на Симпсонов за то, что их отрезали от остального мира…



Страна: США
Продолжительность: 01:26:44
Перевод: Русский профессиональный (дублированный)

Файл
Кодек: H.264
Качество: BDRip Исходник: Blu-Ray Remux
Видео: H.264, 640x356 (852х356 анаморф), ~2.4:1, 1500 Kbps, 23.976 fps
Звук:
Русская дорожка, AAC, 2 канала, 48.0 KHz, 128 Kbps, F L,R
Английская дорожка, AAC, 2 канала, 48.0 KHz, 128 Kbps, F L,R
Субтитры:
Русские
Английские

Код:
Media Type: Movie
XID: Apple:vendor_id:2007-tt0462538
Content ID: 270809837
ScreenWriters: Аль Жан, Йен Макстон-Грэхэм, Джордж Мейер
Producers: Джеймс Л. Брукс, Мэтт Гроунинг, Аль Жан
Director: Дэвид Силверман
Cast: Дэн Кастелланета, Джули Кавнер, Нэнси Картрайт, Ярдли Смит, Гарри Ширер, Хэнк Азария, Марсия Уоллес, Билли Джо Армстронг, Тре Кул, Майк Дирнт
Rating: PG-13
Long Deion: После того, как Гомер сбросил отходы в водохранилище, Спрингфилд объявили карантинной зоной и накрыли гигантским стеклянным колпаком, а местные жители ополчились на Симпсонов за то, что их отрезали от остального мира…
Deion: После того, как Гомер сбросил отходы в водохранилище, Спрингфилд объявили карантинной зоной и накрыли гигантским стеклянным колпаком, а местные жители ополчились на Симпсонов за то, что их отрезали от остального мира…
Release Date: 2007-07-21T07:00:00Z
Genre:  мультфильм, комедия, приключения
Artist: Дэвид Силверман
Name: Симпсоны в кино
Код:
General
Complete name                            : C:Usersnarek_000DesktopThe Simpsons movie.mp4
Format                                   : MPEG-4
Format profile                           : Base Media
Codec ID                                 : isom
File size                                : 1.07 GiB
Duration                                 : 1h 26mn
Overall bit rate mode                    : Variable
Overall bit rate                         : 1 768 Kbps
Movie name                               : Симпсоны в кино
Performer                                : Дэвид Силверман
Genre                                    :  мультфильм, комедия, приключения
ContentType                              : Short Film
Deion                              : После того, как Гомер сбросил отходы в водохранилище, Спрингфилд объявили карантинной зоной и накрыли гигантским стеклянным колпаком, а местные жители ополчились на Симпсонов за то, что их отрезали от остального мира…
Recorded date                            : UTC 2007-07-21 07:00:00
Encoded date                             : UTC 2014-01-28 19:41:47
Tagged date                              : UTC 2014-01-29 19:51:53
Writing application                      : MkvToMp4 [www.mkvtomp4.ru] version: 0.224 (x64)
Cover                                    : Yes
LongDeion                          : После того, как Гомер сбросил отходы в водохранилище, Спрингфилд объявили карантинной зоной и накрыли гигантским стеклянным колпаком, а местные жители ополчились на Симпсонов за то, что их отрезали от остального мира…
AppleStoreCatalogID                      : 270809837
Vendor                                   : Apple:vendor_id:2007-tt0462538
ContentRating                            : mpaa|PG-13|300|

Video
ID                                       : 1
Format                                   : AVC
Format/Info                              : Advanced Video Codec
Format profile                           : Baseline@L3.0
Format settings, CABAC                   : No
Format settings, ReFrames                : 3 frames
Codec ID                                 : avc1
Codec ID/Info                            : Advanced Video Coding
Duration                                 : 1h 26mn
Bit rate                                 : 1 500 Kbps
Maximum bit rate                         : 8 673 Kbps
Width                                    : 640 pixels
Height                                   : 356 pixels
Display aspect ratio                     : 2.40:1
Frame rate mode                          : Variable
Frame rate                               : 23.976 fps
Minimum frame rate                       : 23.810 fps
Maximum frame rate                       : 24.390 fps
Color space                              : YUV
Chroma subsampling                       : 4:2:0
Bit depth                                : 8 bits
Scan type                                : Progressive
Bits/(Pixel*Frame)                       : 0.275
Stream size                              : 931 MiB (85%)
Writing library                          : x264 core 130 r2273 b3065e6
Encoding settings                        : cabac=0 / ref=3 / deblock=1:-1:-1 / analyse=0x1:0x111 / me=umh / subme=9 / psy=1 / psy_rd=1.00:0.15 / mixed_ref=1 / me_range=32 / chroma_me=1 / trellis=1 / 8x8dct=0 / cqm=0 / deadzone=21,11 / fast_pskip=0 / chroma_qp_offset=-3 / threads=6 / lookahead_threads=1 / sliced_threads=0 / nr=0 / decimate=1 / interlaced=0 / bluray_compat=0 / constrained_intra=0 / bframes=0 / weightp=0 / keyint=240 / keyint_min=24 / scenecut=40 / intra_refresh=0 / rc_lookahead=40 / rc=2pass / mbtree=1 / bitrate=1500 / ratetol=1.0 / qcomp=0.60 / qpmin=0 / qpmax=69 / qpstep=4 / cplxblur=20.0 / qblur=0.5 / vbv_maxrate=5000 / vbv_bufsize=5000 / nal_hrd=none / ip_ratio=1.40 / aq=1:1.00
Encoded date                             : UTC 2014-01-26 18:05:31
Tagged date                              : UTC 2014-01-28 19:42:27
Color primaries                          : BT.709
Transfer characteristics                 : BT.709
Matrix coefficients                      : BT.709

Audio #1
ID                                       : 2
Format                                   : AAC
Format/Info                              : Advanced Audio Codec
Format profile                           : LC
Codec ID                                 : 40
Duration                                 : 1h 26mn
Bit rate mode                            : Variable
Bit rate                                 : 128 Kbps
Maximum bit rate                         : 242 Kbps
Channel(s)                               : 2 channels
Channel positions                        : Front: L R
Sampling rate                            : 48.0 KHz
Compression mode                         : Lossy
Stream size                              : 79.4 MiB (7%)
Language                                 : Russian
Encoded date                             : UTC 2014-01-28 19:42:21
Tagged date                              : UTC 2014-01-28 19:42:27

Audio #2
ID                                       : 3
Format                                   : AAC
Format/Info                              : Advanced Audio Codec
Format profile                           : LC
Codec ID                                 : 40
Duration                                 : 1h 26mn
Bit rate mode                            : Variable
Bit rate                                 : 128 Kbps
Maximum bit rate                         : 270 Kbps
Channel(s)                               : 2 channels
Channel positions                        : Front: L R
Sampling rate                            : 48.0 KHz
Compression mode                         : Lossy
Stream size                              : 79.4 MiB (7%)
Language                                 : English
Encoded date                             : UTC 2014-01-28 19:42:24
Tagged date                              : UTC 2014-01-28 19:42:27

Text #1
ID                                       : 4
Format                                   : Timed Text
Muxing mode                              : sbtl
Codec ID                                 : tx3g
Duration                                 : 1h 26mn
Bit rate mode                            : Variable
Bit rate                                 : 98 bps
Stream size                              : 62.1 KiB (0%)
Language                                 : Russian
Encoded date                             : UTC 2014-01-28 19:42:26
Tagged date                              : UTC 2014-01-28 19:42:27

Text #2
ID                                       : 5
Format                                   : Timed Text
Muxing mode                              : sbtl
Codec ID                                 : tx3g
Duration                                 : 1h 26mn
Bit rate mode                            : Variable
Bit rate                                 : 64 bps
Stream size                              : 40.4 KiB (0%)
Language                                 : English
Encoded date                             : UTC 2014-01-28 19:42:27
Tagged date                              : UTC 2014-01-28 19:42:27

Menu
ID                                       : 6
Codec ID                                 : text
Duration                                 : 1h 26mn
Encoded date                             : UTC 2014-01-29 19:51:53
Tagged date                              : UTC 2014-01-29 19:51:53
Bit rate mode                            : CBR
Duration_LastFrame                       : -195343
Код:
x264 [info]: frame I:1752  Avg QP:13.49  size: 54936  PSNR Mean Y:48.66 U:51.75 V:52.43 Avg:49.49 Global:48.23
x264 [info]: frame P:123035 Avg QP:14.42  size:  7149  PSNR Mean Y:47.90 U:50.48 V:50.60 Avg:48.60 Global:47.56
x264 [info]: mb I  I16..4: 24.5%  0.0% 75.5%
x264 [info]: mb P  I16..4:  1.4%  0.0%  1.9%  P16..4: 20.9%  8.6%  6.8%  0.0%  0.0%    skip:60.4%
x264 [info]: coded y,uvDC,uvAC intra: 56.2% 86.2% 81.0% inter: 13.9% 19.0% 13.7%
x264 [info]: i16 v,h,dc,p: 62% 25%  7%  6%
x264 [info]: i4 v,h,dc,ddl,ddr,vr,hd,vl,hu: 24% 13% 14%  9% 10%  9%  8%  7%  6%
x264 [info]: i8c dc,h,v,p: 49% 21% 24%  6%
x264 [info]: ref P L0: 66.5% 18.9% 14.6%
x264 [info]: SSIM Mean Y:0.9952619 (23.244db)
x264 [info]: PSNR Mean Y:47.910 U:50.493 V:50.630 Avg:48.614 Global:47.573 kb/s:1499.84


Релиз от:



   Похожие торренты   Торрент   Размер 
В этой теме нет новых непрочитанных сообщений. Симпсоны в кино / The Simpsons Movie (2007) BDRip-AVC от RP4 CHG

32 | 22

701.32 МБ

В этой теме нет новых непрочитанных сообщений. Симпсоны в кино / Simpsons Movie, The (2007) BDRip от HELLYWOOD

199 | 73

1.69 ГБ

В этой теме нет новых непрочитанных сообщений. Симпсоны в кино / The Simpsons Movie (2007) BDRip 720p

247 | 6

3.42 ГБ

В этой теме нет новых непрочитанных сообщений. Симпсоны в кино / The Simpsons Movie (2007) BDRip от HQCLUB

22 | 36

1.72 ГБ

В этой теме нет новых непрочитанных сообщений. Симпсоны в кино / The Simpsons Movie (2007) BDRip-AVC от R.G. HD-Films | 60 fps

150 | 6

3.19 ГБ

В этой теме нет новых непрочитанных сообщений. Симпсоны в кино / The Simpsons Movie (2007) BDRip 1080p от NNNB

344 | 16

2.96 ГБ

В этой теме нет новых непрочитанных сообщений. Симпсоны в Кино / The Simpsons Movie (2007) BDRip 720p | дополнительные материалы

0 | 2

606.52 МБ




Вы не можете начинать темы
Вы не можете отвечать на сообщения
Вы не можете редактировать свои сообщения
Вы не можете удалять свои сообщения
Вы не можете добавлять вложения

Перейти:  
Для Мосгорсуда, Роскомнадзора и рекламодателей: mosgorsud-torrent[собачка]yandex.ru
 Вход
ppkBB3cker v.2 © 2008-2014 @ PPK
[ Time : 0.037s | 15 Queries | GZIP : Off ]

Торрент трекер RUTOR.IN, Не можете зайти на rutor.org? Какой новый адрес рутор? Какое зеркало рутор? Не работает rutor.org и зеркала? Тогда наш торрент специально для вас. Rutor.in неофициальное зеркало rutor. В случае если у Вас заблокирован rutor или вдруг Вы не можете на него зайти, то Вы без труда сможете скачать бесплатно и без рекламы последние новинки кино, игр, сериалов и прочего у нас, на Rutor.in. Не нужно использовать прокси, чтобы зайти на рутор, достаточно воспользоваться нашим ресурсом. Все новые фильмы, игры, сериалы, книги и музыка за 2013 и 2014 годы через торрент бесплатно. Скачивайте фильмы в хорошем качестве, игры для пк, xbox, playstation без регистрации. У нас вы найдете новые Зарубежные сериалы и Русские сериалы 2013, 2014, 2015 годов. Оставайтесь с нами, качайте любимые фильмы, игры, сериалы, книги и музыку.