img image001 image001 image001 image001 image001 image001 image001 image001 image001 image001 image001 image001 image001 image001 image001

Planets Sun Sun Sun
Статистика раздачи
Автор: PriZraK | Размер: 7.75 ГБ | Добавлен: 15 фев 2014
Раздают: 48    Качают: 8
Скачать торрент
Скачать торрент
Описание торрента

СообщениеДобавлено: 15 фев 2014 



Информация о фильме
    Русское название: Южный Парк: Большой, длинный, необрезанный
    Оригинальное название: South Park: Bigger Longer & Uncut
    Год выхода: 1999
    Жанр: Комедия, мюзикл, мультфильм
    Режиссер: Трей Паркер
    Выпущено: США
    Продолжительность: 01:21:15
    Перевод: Профессиональный (многоголосый закадровый), Авторский (Д.Пучков), Авторский (С.Визгунов), Авторский (С.Кузнецов)
    В ролях: Трей Паркер, Мэтт Стоун, Мэри Кэй Бергман, Айзек Хейз, Джесси Хауэлл, Энтони Кросс-Томас, Франческа Клиффорд, Брюс Хауэлл, Дэб Шихэн, Дженнифер Хауэлл, Джордж Клуни, Брент Спайнер, Минни Драйвер, Дэйв Фоли, Эрик Айдл, Ник Роудс, Тодди Уолтерс, Стюарт Коупленд, Стэнли Дж. Савицки, Майк Джадж, Говард МакДжиллин


Сюжет фильма
    В кинопрокате города Южного Парка появляется художественный фильм для взрослых «Пламенные жопы». Стэн, Кайл, Кенни и Картман хитростью проникают на просмотр и знакомятся с чудовищными ругательствами, которые изрыгают знатные канадские юмористы сортирного толка — Терренс и Филлип. По окончании просмотра дети несут культуру в массы — кроют всё и вся на свете. Правительство США, возмущённое аморальностью канадской кинопродукции, берёт Терренса и Филлипа под арест и намерено казнить их на электрическом стуле. А в это время пребывающий в глубинах Ада Саддам Хуссейн вместе со своим дружком Сатаной готовятся выйти на поверхность и захватить Землю навсегда.


Файл
    Качество: BDRip 1080p (исходник Blu-ray Remux)
    Видео: 1920x1080, 11616 Кбит/сек, 23,976 кадр/сек, AVC, x264, High@L4.1, 16:9, 0.123 Бит/[Пиксели*Кадры], 2pass
    Аудио 1: AC-3, 192 Кбит/сек, 2 канала(ов), 48,0 КГц - Многоголосый закадровый, НТВ+ / Русский
    Аудио 2: AC-3, 448 Кбит/сек, 6 канала(ов), 48,0 КГц - Авторский одноголосый, Д.Пучков (Гоблин) / Русский
    Аудио 3: AC-3, 192 Кбит/сек, 2 канала(ов), 48,0 КГц - Авторский одноголосый, С.Визгунов / Русский
    Аудио 4: AC-3, 192 Кбит/сек, 2 канала(ов), 48,0 КГц - Авторский одноголосый, С.Кузнецов / Русский
    Аудио 5: AC-3, 192 Кбит/сек, 2 канала(ов), 48,0 КГц - Многоголосый закадровый, ICTV / Украинский
    Аудио 6: AC-3, 384 Кбит/сек, 6 канала(ов), 48,0 КГц - Многоголосый закадровый, 1+1 / Украинский
    Аудио 7: AC-3, 448 Кбит/сек, 6 канала(ов), 48,0 КГц - Оригинал / Английский
    Субтитры: Русские | Полные, Английские | Полные
    Чаптеры (Главы): Есть



Автор Рипа: Сообщество:



Format : Matroska
Format version : Version 2
File size : 7.75 GiB
Duration : 1h 21mn
Overall bit rate : 13.6 Mbps
Movie name : Южный Парк: Большой, длинный, необрезанный.(1999).BDRip.1080p.[envy]
Encoded date : UTC 2014-02-02 06:27:49
Writing application : mkvmerge v5.8.0 ('No Sleep / Pillow') built on Sep 2 2012 15:37:04
Writing library : libebml v1.2.3 + libmatroska v1.3.0

Video
ID : 1
Format : AVC
Format/Info : Advanced Video Codec
Format profile : High@L4.1
Format settings, CABAC : Yes
Format settings, ReFrames : 4 frames
Codec ID : V_MPEG4/ISO/AVC
Duration : 1h 21mn
Bit rate : 11.6 Mbps
Width : 1 920 pixels
Height : 1 080 pixels
Display aspect ratio : 16:9
Frame rate mode : Constant
Frame rate : 23.976 fps
Color space : YUV
Chroma subsampling : 4:2:0
Bit depth : 8 bits
Scan type : Progressive
Bits/(Pixel*Frame) : 0.234
Stream size : 6.43 GiB (83%)
Title : Южный Парк: Большой, длинный, необрезанный.(1999).BDRip.1080p.[envy]
Writing library : x264 core 140 r2377 1ca7bb9
Encoding settings : cabac=1 / ref=4 / deblock=1:-3:-1 / analyse=0x3:0x133 / me=umh / subme=11 / psy=1 / psy_rd=1.00:0.00 / mixed_ref=1 / me_range=48 / chroma_me=1 / trellis=2 / 8x8dct=1 / cqm=0 / deadzone=21,11 / fast_pskip=0 / chroma_qp_offset=-2 / threads=12 / lookahead_threads=1 / sliced_threads=0 / nr=0 / decimate=1 / interlaced=0 / bluray_compat=0 / constrained_intra=0 / bframes=6 / b_pyramid=2 / b_adapt=2 / b_bias=0 / direct=3 / weightb=1 / open_gop=0 / weightp=2 / keyint=240 / keyint_min=23 / scenecut=40 / intra_refresh=0 / rc=2pass / mbtree=0 / bitrate=11616 / ratetol=2.0 / qcomp=0.60 / qpmin=0 / qpmax=69 / qpstep=4 / cplxblur=20.0 / qblur=0.5 / ip_ratio=1.40 / pb_ratio=1.30 / aq=1:0.60
Language : English
Default : Yes
Forced : No

Audio #1
ID : 2
Format : AC-3
Format/Info : Audio Coding 3
Mode extension : CM (complete main)
Format settings, Endianness : Big
Codec ID : A_AC3
Duration : 1h 21mn
Bit rate mode : Constant
Bit rate : 192 Kbps
Channel count : 2 channels
Channel positions : Front: L R
Sampling rate : 48.0 KHz
Bit depth : 16 bits
Compression mode : Lossy
Stream size : 112 MiB (1%)
Title : NTV+
Language : Russian
Default : Yes
Forced : No

Audio #2
ID : 3
Format : AC-3
Format/Info : Audio Coding 3
Mode extension : CM (complete main)
Format settings, Endianness : Big
Codec ID : A_AC3
Duration : 1h 21mn
Bit rate mode : Constant
Bit rate : 448 Kbps
Channel count : 6 channels
Channel positions : Front: L C R, Side: L R, LFE
Sampling rate : 48.0 KHz
Bit depth : 16 bits
Compression mode : Lossy
Stream size : 260 MiB (3%)
Title : Goblin
Language : Russian
Default : No
Forced : No

Audio #3
ID : 4
Format : AC-3
Format/Info : Audio Coding 3
Mode extension : CM (complete main)
Format settings, Endianness : Big
Codec ID : A_AC3
Duration : 1h 21mn
Bit rate mode : Constant
Bit rate : 192 Kbps
Channel count : 2 channels
Channel positions : Front: L R
Sampling rate : 44.1 KHz
Bit depth : 16 bits
Compression mode : Lossy
Stream size : 112 MiB (1%)
Title : Vizgunov
Language : Russian
Default : No
Forced : No

Audio #4
ID : 5
Format : AC-3
Format/Info : Audio Coding 3
Mode extension : CM (complete main)
Format settings, Endianness : Big
Codec ID : A_AC3
Duration : 1h 21mn
Bit rate mode : Constant
Bit rate : 192 Kbps
Channel count : 2 channels
Channel positions : Front: L R
Sampling rate : 44.1 KHz
Bit depth : 16 bits
Compression mode : Lossy
Stream size : 112 MiB (1%)
Title : Kuznecov
Language : Russian
Default : No
Forced : No

Audio #5
ID : 6
Format : AC-3
Format/Info : Audio Coding 3
Mode extension : CM (complete main)
Format settings, Endianness : Big
Codec ID : A_AC3
Duration : 1h 21mn
Bit rate mode : Constant
Bit rate : 192 Kbps
Channel count : 2 channels
Channel positions : Front: L R
Sampling rate : 44.1 KHz
Bit depth : 16 bits
Compression mode : Lossy
Stream size : 112 MiB (1%)
Title : ICTV
Language : Ukrainian
Default : No
Forced : No

Audio #6
ID : 7
Format : AC-3
Format/Info : Audio Coding 3
Mode extension : CM (complete main)
Format settings, Endianness : Big
Codec ID : A_AC3
Duration : 1h 21mn
Bit rate mode : Constant
Bit rate : 384 Kbps
Channel count : 6 channels
Channel positions : Front: L C R, Side: L R, LFE
Sampling rate : 48.0 KHz
Bit depth : 16 bits
Compression mode : Lossy
Stream size : 223 MiB (3%)
Title : 1+1
Language : Ukrainian
Default : No
Forced : No

Audio #7
ID : 8
Format : AC-3
Format/Info : Audio Coding 3
Mode extension : CM (complete main)
Format settings, Endianness : Big
Codec ID : A_AC3
Duration : 1h 21mn
Bit rate mode : Constant
Bit rate : 448 Kbps
Channel count : 6 channels
Channel positions : Front: L C R, Side: L R, LFE
Sampling rate : 48.0 KHz
Bit depth : 16 bits
Compression mode : Lossy
Stream size : 260 MiB (3%)
Title : Eng
Language : English
Default : No
Forced : No

Text #1
ID : 9
Format : UTF-8
Codec ID : S_TEXT/UTF8
Codec ID/Info : UTF-8 Plain Text
Title : rus full
Language : Russian
Default : No
Forced : No

Text #2
ID : 10
Format : UTF-8
Codec ID : S_TEXT/UTF8
Codec ID/Info : UTF-8 Plain Text
Title : eng full
Language : English
Default : No
Forced : No

Menu
00:05:00.000 : :Chapter 01
00:10:00.000 : :Chapter 02
00:15:00.000 : :Chapter 03
00:20:00.000 : :Chapter 04
00:25:00.000 : :Chapter 05
00:30:00.000 : :Chapter 06
00:35:00.000 : :Chapter 07
00:40:00.000 : :Chapter 08
00:45:00.000 : :Chapter 09
00:50:00.000 : :Chapter 10
00:55:00.000 : :Chapter 11
01:00:00.000 : :Chapter 12
01:05:00.000 : :Chapter 13
01:10:00.000 : :Chapter 14
01:15:00.000 : :Chapter 15
01:20:00.000 : :Chapter 16


При поддержке:


В фильме в 3 местах озвучка Сергея Визгунова отсутствует: 04:15~05:00, 07:21~08:56 и 21:43~23:29
Звуковая дорожка Сергея Кузнецова оцифровывалась с кассеты VHS - спасибо Alexbeers за предоставленный материал!
Русские субтитрв содержат нецензурные слова.
Звуковые дорожки от Д.Пучкова и С.Визгунова содержат нецензурные выражения.



   Похожие торренты   Торрент   Размер 
В этой теме нет новых непрочитанных сообщений. Южный Парк: Большой, длинный, необрезанный / South Park: Bigger Longer & Uncut (1999) BDRip 1080p

10 | 4

4.74 ГБ

В этой теме нет новых непрочитанных сообщений. Южный Парк: Большой, длинный, необрезанный / South Park: Bigger Longer & Uncut (1999) BDRip

16 | 2

1.82 ГБ

В этой теме нет новых непрочитанных сообщений. Южный Парк: Большой, длинный, необрезанный / South Park: Bigger Longer & Uncut (1999) BDRip от HQ-ViDEO | P, A

271 | 19

1.46 ГБ

В этой теме нет новых непрочитанных сообщений. Южный Парк: Большой, длинный, необрезанный / South Park: Bigger Longer & Uncut (1999) BDRip от HQCLUB

55 | 8

1.45 ГБ

В этой теме нет новых непрочитанных сообщений. Южный Парк: Большой, Длинный, Необрезанный / South Park: Bigger Longer & Uncut (1999) BDRip от HQ-ViDEO

4 | 4

1.71 ГБ

В этой теме нет новых непрочитанных сообщений. Южный Парк: Большой, Длинный, Необрезанный / South Park: Bigger Longer & Uncut (1999) BDRip от HELLYWOOD

32 | 7

2.03 ГБ

В этой теме нет новых непрочитанных сообщений. Южный Парк: Большой, Длинный, Необрезанный / South Park: Bigger Longer & Uncut (1999) DVDRip

7 | 3

700.87 МБ




Вы не можете начинать темы
Вы не можете отвечать на сообщения
Вы не можете редактировать свои сообщения
Вы не можете удалять свои сообщения
Вы не можете добавлять вложения

Перейти:  
Для Мосгорсуда, Роскомнадзора и рекламодателей: mosgorsud-torrent[собачка]yandex.ru
 Вход
ppkBB3cker v.2 © 2008-2014 @ PPK
[ Time : 0.043s | 14 Queries | GZIP : Off ]

Торрент трекер RUTOR.IN, Не можете зайти на rutor.org? Какой новый адрес рутор? Какое зеркало рутор? Не работает rutor.org и зеркала? Тогда наш торрент специально для вас. Rutor.in неофициальное зеркало rutor. В случае если у Вас заблокирован rutor или вдруг Вы не можете на него зайти, то Вы без труда сможете скачать бесплатно и без рекламы последние новинки кино, игр, сериалов и прочего у нас, на Rutor.in. Не нужно использовать прокси, чтобы зайти на рутор, достаточно воспользоваться нашим ресурсом. Все новые фильмы, игры, сериалы, книги и музыка за 2013 и 2014 годы через торрент бесплатно. Скачивайте фильмы в хорошем качестве, игры для пк, xbox, playstation без регистрации. У нас вы найдете новые Зарубежные сериалы и Русские сериалы 2013, 2014, 2015 годов. Оставайтесь с нами, качайте любимые фильмы, игры, сериалы, книги и музыку.