img image001 image001 image001 image001 image001 image001 image001 image001 image001 image001 image001 image001 image001 image001 image001

Planets Sun Sun Sun
Статистика раздачи
Автор: PriZraK | Размер: 1.01 ГБ | Добавлен: 15 фев 2014
Раздают: 181    Качают: 13
Скачать торрент
Скачать торрент
Описание торрента

СообщениеДобавлено: 15 фев 2014 




Информация о фильме
Оригинальное название: Иван Царевич и Серый Волк 2
Год выпуска: 2013
Жанр: Мультфильм, приключения, семейный, фэнтези
Режиссер: Владимир Торопчин
В ролях: Никита Ефремов, Татьяна Бунина, Иван Охлобыстин, Михаил Боярский, Ирина Рахманова, Александр Боярский

О фильме: В Тридевятом царстве, где живут наши герои — тишь, да благодать. Иван женился на Василисе, и «жили они долго и счастливо», да не тут-то было. Иван целыми днями пропадает с Волком на службе — укрепляет рубежи и оборонную мощь, мечтает перевести стрелки часов на семь часов назад, чтобы меньше спать, и больше работать. А Василисе — скучно, как всем девушкам, ей хочется романтики, ну, такой, как в сказках. И тогда она решает организовать свое похищение… Однако, когда такое бывало, что в сказках все получалось так, как задумывалось?



Выпущено: Россия, Кинокомпания CTB, Анимационная студия Мельница
Продолжительность: 01:12:37
Озвучивание: Оригинал (русский)

Файл
Кодек: H264
Качество: HDRip (AVC)
Видео: MPEG-4 AVC, 1538 Кбит/с, 1024х576
Звук: AC3, 6 ch, 448 Кбит/с

x264 [info]: frame I:1247 Avg QP:10.37 size:117685
x264 [info]: frame P:28434 Avg QP:14.78 size: 16118
x264 [info]: frame B:74905 Avg QP:21.01 size: 3160

General
Unique ID : 250535943699698542801040570572493953949 (0xBC7B77B565C37EC9BA799362CA7A1B9D)
Complete name : C:IVAN.2.2013.HDRip.AVC.ExKinoRay.mkv
Format : Matroska
Format version : Version 2
File size : 1.01 GiB
Duration : 1h 12mn
Overall bit rate : 1 987 Kbps
Movie name : ExKinoRay
Encoded date : UTC 2014-02-05 03:41:12
Writing application : mkvmerge v4.9.1 ('Ich will') built on Jul 11 2011 23:53:15
Writing library : libebml v1.2.1 + libmatroska v1.1.1

Video
ID : 1
Format : AVC
Format/Info : Advanced Video Codec
Format profile : High@L4.1
Format settings, CABAC : Yes
Format settings, ReFrames : 8 frames
Codec ID : V_MPEG4/ISO/AVC
Duration : 1h 12mn
Bit rate : 1 538 Kbps
Width : 1 024 pixels
Height : 576 pixels
Display aspect ratio : 16:9
Frame rate mode : Constant
Frame rate : 24.000 fps
Color space : YUV
Chroma subsampling : 4:2:0
Bit depth : 8 bits
Scan type : Progressive
Bits/(Pixel*Frame) : 0.109
Stream size : 779 MiB (75%)
Title : Enigma-Vladislav71
Writing library : x264 core 116 r2044 392e762
Encoding settings : cabac=1 / ref=8 / deblock=1:-2:-1 / analyse=0x3:0x113 / me=umh / subme=9 / psy=1 / psy_rd=1.00:0.20 / mixed_ref=1 / me_range=32 / chroma_me=1 / trellis=2 / 8x8dct=1 / cqm=0 / deadzone=21,11 / fast_pskip=0 / chroma_qp_offset=-3 / threads=12 / sliced_threads=0 / nr=0 / decimate=0 / interlaced=0 / bluray_compat=0 / constrained_intra=0 / bframes=8 / b_pyramid=2 / b_adapt=2 / b_bias=0 / direct=3 / weightb=1 / open_gop=0 / weightp=2 / keyint=240 / keyint_min=24 / scenecut=40 / intra_refresh=0 / rc_lookahead=50 / rc=2pass / mbtree=1 / bitrate=1538 / ratetol=1.0 / qcomp=0.60 / qpmin=0 / qpmax=69 / qpstep=4 / cplxblur=20.0 / qblur=0.5 / ip_ratio=1.40 / aq=1:1.00
Default : Yes
Forced : No

Audio
ID : 2
Format : AC-3
Format/Info : Audio Coding 3
Mode extension : CM (complete main)
Format settings, Endianness : Big
Codec ID : A_AC3
Duration : 1h 12mn
Bit rate mode : Constant
Bit rate : 448 Kbps
Channel(s) : 6 channels
Channel positions : Front: L C R, Side: L R, LFE
Sampling rate : 48.0 KHz
Bit depth : 16 bits
Compression mode : Lossy
Stream size : 233 MiB (23%)
Language : Russian
Default : Yes
Forced : No

Menu
00:00:00.000 : en:00:00:00.000
00:08:56.292 : en:00:08:56.292
00:17:20.708 : en:00:17:20.708
00:30:52.708 : en:00:30:52.708
00:42:35.792 : en:00:42:35.792
01:00:23.875 : en:01:00:23.875





Релиз от:

Авторы релиза:



   Похожие торренты   Торрент   Размер 
В этой теме нет новых непрочитанных сообщений. Иван Царевич и Серый Волк 2 (2013) HDRip | Лицензия

4566 | 168

1.37 ГБ

В этой теме нет новых непрочитанных сообщений. Иван Царевич и Серый Волк 2 (2013) HDRip от Sanjar & NeoJet | КПК | Лицензия

50 | 7

218.95 МБ

В этой теме нет новых непрочитанных сообщений. Иван Царевич и Серый Волк (2011) HDRip | Лицензия

253 | 17

699.64 МБ

В этой теме нет новых непрочитанных сообщений. Иван Царевич и Серый Волк 3 (2015) HDRip | КПК | Лицензия

116 | 4

347.78 МБ

В этой теме нет новых непрочитанных сообщений. Иван Царевич и Серый Волк 2 (2013) BDRemux 1080p от ExKinoRay

466 | 47

7.61 ГБ

В этой теме нет новых непрочитанных сообщений. Иван Царевич и Серый Волк 2 (2013) BDRemux 1080p от ExKinoRay | 3D-Video | 2D, 3D

198 | 16

15.8 ГБ

В этой теме нет новых непрочитанных сообщений. Иван Царевич и Серый Волк 2 (2013) DVDRip от -=HD-NET=-| КПК | Лицензия

196 | 8

240.57 МБ




Вы не можете начинать темы
Вы не можете отвечать на сообщения
Вы не можете редактировать свои сообщения
Вы не можете удалять свои сообщения
Вы не можете добавлять вложения

Перейти:  
Для Мосгорсуда, Роскомнадзора и рекламодателей: mosgorsud-torrent[собачка]yandex.ru
 Вход
ppkBB3cker v.2 © 2008-2014 @ PPK
[ Time : 0.019s | 14 Queries | GZIP : Off ]

Торрент трекер RUTOR.IN, Не можете зайти на rutor.org? Какой новый адрес рутор? Какое зеркало рутор? Не работает rutor.org и зеркала? Тогда наш торрент специально для вас. Rutor.in неофициальное зеркало rutor. В случае если у Вас заблокирован rutor или вдруг Вы не можете на него зайти, то Вы без труда сможете скачать бесплатно и без рекламы последние новинки кино, игр, сериалов и прочего у нас, на Rutor.in. Не нужно использовать прокси, чтобы зайти на рутор, достаточно воспользоваться нашим ресурсом. Все новые фильмы, игры, сериалы, книги и музыка за 2013 и 2014 годы через торрент бесплатно. Скачивайте фильмы в хорошем качестве, игры для пк, xbox, playstation без регистрации. У нас вы найдете новые Зарубежные сериалы и Русские сериалы 2013, 2014, 2015 годов. Оставайтесь с нами, качайте любимые фильмы, игры, сериалы, книги и музыку.