img image001 image001 image001 image001 image001 image001 image001 image001 image001 image001 image001 image001 image001 image001 image001

Planets Sun Sun Sun
Статистика раздачи
Автор: PriZraK | Размер: 2.18 ГБ | Добавлен: 15 фев 2014
Раздают: 291    Качают: 14
Скачать торрент
Скачать торрент
Описание торрента

СообщениеДобавлено: 15 фев 2014 




Информация о фильме
Название: Облачно, возможны осадки: Месть ГМО
Оригинальное название: Cloudy 2: Revenge of the Leftovers
Год выхода: 2013
Жанр: Мультфильм, фантастика, фэнтези, комедия, семейный
Режиссер: Коуди Камерон, Крис Пирн
В ролях: Билл Хейдер, Анна Фэрис, Джеймс Каан, Уилл Форте, Энди Сэмберг, Бенджамин Брэтт, Нил Патрик Харрис, Терри Крюс, Кристен Шол, Коуди Камерон

О фильме:
Все жители острова Поплавок покинули родной дом после событий предыдущего мультфильма. Главный герой Флинт Локвуд теперь работает в компании The Live Corp на своего кумира Честера. Но ему придется оставить свой пост когда он узнает, что его печально-известная машина все ещё работает и производит на свет опасных гибридов. Флинту предстоит ещё раз спасти мир и не дать коварной машине распространить громадную еду по всему миру.


Страна: США / Columbia Pictures, Sony Pictures Animation, Sony Pictures Imageworks (SPI)
Продолжительность: 01:34:49
Перевод: Дублированное [лицензия]

Файл
Кодек: x264
Качество: BDRip-AVC
Видео: MPEG-4 AVC, 2396 Кбит/с, 1024x426, 23.976 кадр/с
Аудио #1: Русский (AC3, 6 ch, 448 Кбит/с) / Дублированный (Blu-ray CEE)
Аудио #2: Английский (AC3, 6 ch, 448 Кбит/с)
Субтитры: Русские, английские

Семпл

x264 [info]: frame I:1282 Avg QP:16.26 size: 95908
x264 [info]: frame P:34895 Avg QP:19.81 size: 24470
x264 [info]: frame B:100263 Avg QP:21.37 size: 7258

Format : Matroska
Format version : Version 4 / Version 2
File size : 2.18 GiB
Duration : 1h 34mn
Overall bit rate : 3 294 Kbps
Movie name : -=MediaClub - Odessit=-
Encoded date : UTC 2014-02-05 10:26:34
Writing application : mkvmerge v6.1.0 ('Old Devil') built on Mar 4 2013 09:10:42
Writing library : libebml v1.3.0 + libmatroska v1.4.0

Video
ID : 1
Format : AVC
Format/Info : Advanced Video Codec
Format profile : High@L4.1
Format settings, CABAC : Yes
Format settings, ReFrames : 12 frames
Codec ID : V_MPEG4/ISO/AVC
Duration : 1h 34mn
Bit rate : 2 396 Kbps
Width : 1 024 pixels
Height : 426 pixels
Display aspect ratio : 2.40:1
Frame rate mode : Constant
Frame rate : 23.976 fps
Color space : YUV
Chroma subsampling : 4:2:0
Bit depth : 8 bits
Scan type : Progressive
Bits/(Pixel*Frame) : 0.229
Stream size : 1.55 GiB (71%)
Writing library : x264 core 130 r2273 b3065e6
Encoding settings : cabac=1 / ref=12 / deblock=1:-2:-2 / analyse=0x3:0x133 / me=umh / subme=11 / psy=1 / psy_rd=1.00:0.20 / mixed_ref=1 / me_range=48 / chroma_me=1 / trellis=2 / 8x8dct=1 / cqm=0 / deadzone=21,11 / fast_pskip=0 / chroma_qp_offset=-3 / threads=6 / lookahead_threads=1 / sliced_threads=0 / nr=0 / decimate=0 / interlaced=0 / bluray_compat=0 / constrained_intra=0 / bframes=9 / b_pyramid=2 / b_adapt=2 / b_bias=0 / direct=3 / weightb=1 / open_gop=0 / weightp=2 / keyint=240 / keyint_min=23 / scenecut=40 / intra_refresh=0 / rc=2pass / mbtree=0 / bitrate=2396 / ratetol=1.0 / qcomp=0.60 / qpmin=0 / qpmax=69 / qpstep=4 / cplxblur=20.0 / qblur=0.5 / ip_ratio=1.40 / pb_ratio=1.30 / aq=1:1.00
Language : English
Default : Yes
Forced : No

Audio #1
ID : 2
Format : AC-3
Format/Info : Audio Coding 3
Mode extension : CM (complete main)
Format settings, Endianness : Big
Codec ID : A_AC3
Duration : 1h 34mn
Bit rate mode : Constant
Bit rate : 448 Kbps
Channel count : 6 channels
Channel positions : Front: L C R, Side: L R, LFE
Sampling rate : 48.0 KHz
Bit depth : 16 bits
Compression mode : Lossy
Stream size : 304 MiB (14%)
Title : Дублированный (Blu-ray CEE)
Language : Russian
Default : Yes
Forced : No

Audio #2
ID : 3
Format : AC-3
Format/Info : Audio Coding 3
Mode extension : CM (complete main)
Format settings, Endianness : Big
Codec ID : A_AC3
Duration : 1h 34mn
Bit rate mode : Constant
Bit rate : 448 Kbps
Channel count : 6 channels
Channel positions : Front: L C R, Side: L R, LFE
Sampling rate : 48.0 KHz
Bit depth : 16 bits
Compression mode : Lossy
Stream size : 304 MiB (14%)
Language : English
Default : No
Forced : No

Text #1
ID : 4
Format : UTF-8
Codec ID : S_TEXT/UTF8
Codec ID/Info : UTF-8 Plain Text
Language : Russian
Default : No
Forced : No

Text #2
ID : 5
Format : UTF-8
Codec ID : S_TEXT/UTF8
Codec ID/Info : UTF-8 Plain Text
Language : English
Default : No
Forced : No

Menu
00:00:00.000 : :Chapter 01
00:07:12.014 : :Chapter 02
00:12:51.520 : :Chapter 03
00:18:50.420 : :Chapter 04
00:25:58.390 : :Chapter 05
00:31:57.081 : :Chapter 06
00:36:53.252 : :Chapter 07
00:39:28.908 : :Chapter 08
00:41:07.840 : :Chapter 09
00:45:28.016 : :Chapter 10
00:49:48.694 : :Chapter 11
00:54:41.403 : :Chapter 12
01:00:39.886 : :Chapter 13
01:06:47.920 : :Chapter 14
01:12:54.953 : :Chapter 15
01:21:25.589 : :Chapter 16



Релиз от: |



   Похожие торренты   Торрент   Размер 
В этой теме нет новых непрочитанных сообщений. Облачно возможны осадки: Месть ГМО / Cloudy 2: Revenge of the Leftovers (2013) BDRip-AVC от HELLYWOOD | Лицензия

729 | 46

2.19 ГБ

В этой теме нет новых непрочитанных сообщений. Облачно, возможны осадки: Месть ГМО / Cloudy 2: Revenge of the Leftovers (2013) BDRip 720p | Лицензия

301 | 27

3.93 ГБ

В этой теме нет новых непрочитанных сообщений. Облачно, возможны осадки: Месть ГМО / Cloudy 2: Revenge of the Leftovers (2013) BDRip 1080p | Лицензия

412 | 26

8.33 ГБ

В этой теме нет новых непрочитанных сообщений. Облачно возможны осадки: Месть ГМО / Cloudy 2: Revenge of the Leftovers (2013) BDRip 720p от HELLYWOOD | Лицензия

241 | 13

4.39 ГБ

В этой теме нет новых непрочитанных сообщений. Облачно, возможны осадки: Месть ГМО / Cloudy 2: Revenge of the Leftovers (2013) HDRip | Лицензия

2324 | 104

1.46 ГБ

В этой теме нет новых непрочитанных сообщений. Облачно, возможны осадки: Месть ГМО / Cloudy 2: Revenge of the Leftovers (2013) BDRip 720p от Leonardo and Scarabey | Лицензия

278 | 22

2.9 ГБ

В этой теме нет новых непрочитанных сообщений. Облачно возможны осадки: Месть ГМО / Cloudy 2: Revenge of the Leftovers (2013) HDRip от Torrange | D | Лицензия

260 | 18

745.29 МБ




Вы не можете начинать темы
Вы не можете отвечать на сообщения
Вы не можете редактировать свои сообщения
Вы не можете удалять свои сообщения
Вы не можете добавлять вложения

Перейти:  
Для Мосгорсуда, Роскомнадзора и рекламодателей: mosgorsud-torrent[собачка]yandex.ru
 Вход
ppkBB3cker v.2 © 2008-2014 @ PPK
[ Time : 0.026s | 16 Queries | GZIP : Off ]

Торрент трекер RUTOR.IN, Не можете зайти на rutor.org? Какой новый адрес рутор? Какое зеркало рутор? Не работает rutor.org и зеркала? Тогда наш торрент специально для вас. Rutor.in неофициальное зеркало rutor. В случае если у Вас заблокирован rutor или вдруг Вы не можете на него зайти, то Вы без труда сможете скачать бесплатно и без рекламы последние новинки кино, игр, сериалов и прочего у нас, на Rutor.in. Не нужно использовать прокси, чтобы зайти на рутор, достаточно воспользоваться нашим ресурсом. Все новые фильмы, игры, сериалы, книги и музыка за 2013 и 2014 годы через торрент бесплатно. Скачивайте фильмы в хорошем качестве, игры для пк, xbox, playstation без регистрации. У нас вы найдете новые Зарубежные сериалы и Русские сериалы 2013, 2014, 2015 годов. Оставайтесь с нами, качайте любимые фильмы, игры, сериалы, книги и музыку.