img image001 image001 image001 image001 image001 image001 image001 image001 image001 image001 image001 image001 image001 image001 image001

Planets Sun Sun Sun
Статистика раздачи
Автор: PriZraK | Размер: 787.17 МБ | Добавлен: 15 фев 2014
Раздают: 71    Качают: 10
Скачать торрент
Скачать торрент
Описание торрента

СообщениеДобавлено: 15 фев 2014 




Информация о фильме
Название: Иван Царевич и Серый Волк
Оригинальное название: Иван Царевич и Серый Волк
Год выхода: 2011
Жанр: мультфильм
Режиссер: Владимир Торопчин
В ролях: Никита Ефремов, Иван Охлобыстин, Артур Смольянинов, Лия Ахеджакова, Кристина Асмус, Виктор Сухоруков, Сергей Гармаш, Михаил Боярский, Татьяна Бунина, Сергей Русскин

О фильме:
Увлекательная история от создателей богатырской трилогии, в которой героев русских народных сказок ждут новые приключения, опасности и забавные ситуации.



Страна: Россия
Студия: Анимационная студия Мельница, Кинокомпания CTB
Продолжительность: 01:26:03
Перевод: не требуется

Файл
Кодек: H.264
Качество: BDRip-AVC 480p iPhone
Видео: 640x480 (852x480 анаморф) at 23.976 fps, AVC at 1106 kbps avg
Звук:
48 kHz, AAC 2.0, 170 kbps - Русский
Субтитры: нет

Sort Name: Иван Царевич и Серый Волк
XID: Apple:vendor_id:2011-406175
contentID: 406175
Copyright: © Анимационная студия Мельница, Кинокомпания CTB
Screenwriters: Александр Боярский
Producers: Сергей Сельянов, Александр Боярский, Сергей Глезин
Director: Владимир Торопчин
Cast: Никита Ефремов, Татьяна Бунина, Артур Смольянинов, Иван Охлобыстин, Виктор Сухоруков, Сергей Гармаш, Михаил Боярский, Сергей Русскин, Александр Боярский, Лия Ахеджакова
Rating: 2
Long Deion: Увлекательная история от создателей богатырской трилогии, в которой героев русских народных сказок ждут новые приключения, опасности и забавные ситуации.
Deion: Увлекательная история от создателей богатырской трилогии, в которой героев русских народных сказок ждут новые приключения, опасности и забавные ситуации.
Release Date: 2011-12-29T08:00:00Z
Genre: Animation
Artist: Владимир Торопчин
Name: Иван Царевич и Серый Волк
Общее
Полное имя : /Users/gekkas/Movies/CREATE/Ivan Tsarevich i Seryy Volk.2011 (SD).m4v
Формат : MPEG-4
Идентификатор кодека : M4V
Размер файла : 787 Мбайт
Продолжительность : 1 ч. 26 м.
Режим общего битрейта : Переменный
Общий поток : 1279 Кбит/сек
Название фильма : Иван Царевич и Серый Волк
Исполнитель : Владимир Торопчин
Жанр : Animation
Тип содержимого : Short Film
Описание : Увлекательная история от создателей богатырской трилогии, в которой героев русских народных сказок ждут новые приключения, опасности и забавные ситуации.
Дата записи : UTC 2011-12-29 08:00:00
Дата кодирования : UTC 2014-02-05 14:11:30
Дата пометки : UTC 2014-02-05 14:33:17
Правообладатель : © Анимационная студия Мельница, Кинокомпания CTB
Обложка : Yes
Рейтинг : None
Title/Sort : Иван Царевич и Серый Волк
LongDeion : Увлекательная история от создателей богатырской трилогии, в которой героев русских народных сказок ждут новые приключения, опасности и забавные ситуации.
AppleStoreCatalogID : 406175
Vendor : Apple:vendor_id:2011-406175
ContentRating : mpaa|G|100|

Видео #1
Идентификатор : 1
Формат : AVC
Формат/Информация : Advanced Video Codec
Профиль формата : Baseline@L3.0
Параметр CABAC формата : Нет
Параметр ReFrames формата : 2 кадра
Параметр GOP формата : N=1
Идентификатор кодека : avc1
Идентификатор кодека/Информация : Advanced Video Coding
Продолжительность : 1 ч. 26 м.
Битрейт : 1106 Кбит/сек
Максимальный битрейт : 5254 Кбит/сек
Ширина : 640 пикселей
Высота : 480 пикселей
Соотношение сторон : 16:9
Режим частоты кадров : Постоянный
Частота кадров : 23,976 кадра/сек
Цветовое пространство : YUV
Субдискретизация насыщенности : 4:2:0
Битовая глубина : 8 бит
Тип развёртки : Прогрессивная
Бит/(Пиксели*Кадры) : 0.150
Размер потока : 681 Мбайт (86%)
Заголовок : Ivan Czarevich and the Grey Wolf _2011_
Библиотека кодирования : x264 core 140 r2377+40 929f149 tMod [8-bit@4:2:0 X86_64]
Настройки программы : cabac=0 / ref=2 / deblock=1:-1:-1 / analyse=0x1:0x131 / me=umh / subme=7 / psy=1 / fade_compensate=0.10 / psy_rd=1.00:0.00 / mixed_ref=1 / me_range=32 / chroma_me=1 / trellis=2 / 8x8dct=0 / cqm=0 / deadzone=21,11 / fast_pskip=1 / chroma_qp_offset=-2 / threads=12 / lookahead_threads=2 / sliced_threads=0 / nr=0 / decimate=1 / interlaced=0 / bluray_compat=0 / constrained_intra=0 / fgo=0 / bframes=0 / weightp=0 / keyint=250 / keyint_min=23 / scenecut=40 / intra_refresh=0 / rc_lookahead=40 / rc=crf / mbtree=1 / crf=19.0000 / qcomp=0.60 / qpmin=0:0:0 / qpmax=69:69:69 / qpstep=4 / vbv_maxrate=5000 / vbv_bufsize=5000 / crf_max=0.0 / nal_hrd=none / filler=0 / ip_ratio=1.40 / aq=1:1.00 / aq-sensitivity=10.00 / aq-factor=1.00:1.00:1.00 / aq2=0 / aq3=0
Язык : Russian
Дата кодирования : UTC 2014-02-05 14:11:30
Дата пометки : UTC 2014-02-05 14:11:47
Коэффициенты матрицы : BT.709

Видео #2
Идентификатор : 5
Формат : JPEG
Идентификатор кодека : jpeg
Продолжительность : 1 ч. 26 м.
Вид битрейта : Переменный
Битрейт : 935 бит/сек
Ширина : 640 пикселей
Высота : 360 пикселей
Соотношение сторон : 16:9
Режим частоты кадров : Переменный
Частота кадров : 0,002 кадр/сек
Минимальная частота кадров : 0,002 кадр/сек
Максимальная частота кадров : 0,003 кадр/сек
Цветовое пространство : YUV
Субдискретизация насыщенности : 4:2:0
Битовая глубина : 8 бит
Метод сжатия : С потерями
Бит/(Пиксели*Кадры) : 2.029
Размер потока : 684 Кбайт (0%)
Язык : Russian
Дата кодирования : UTC 2014-02-05 14:33:05
Дата пометки : UTC 2014-02-05 14:33:06

Аудио
Идентификатор : 2
Формат : AAC
Формат/Информация : Advanced Audio Codec
Профиль формата : LC
Идентификатор кодека : 40
Продолжительность : 1 ч. 26 м.
Вид битрейта : Переменный
Битрейт : 169 Кбит/сек
Максимальный битрейт : 245 Кбит/сек
Каналы : 2 канала
Расположение каналов : Front: L R
Частота : 48,0 КГц
Метод сжатия : С потерями
Размер потока : 104 Мбайт (13%)
Заголовок : AAC Original
Язык : Russian
Дата кодирования : UTC 2014-02-05 14:09:43
Дата пометки : UTC 2014-02-05 14:11:47

Меню
Идентификатор : 4
Идентификатор кодека : text
Продолжительность : 1 ч. 26 м.
Язык : Russian
Дата кодирования : UTC 2014-02-05 14:11:54
Дата пометки : UTC 2014-02-05 14:11:54
Вид битрейта : CBR
00:00:00.000 : 00:00:00.000
00:08:25.088 : 00:08:25.088
00:15:22.213 : 00:15:22.213
00:22:22.591 : 00:22:22.591
00:29:26.098 : 00:29:26.098
00:36:14.672 : 00:36:14.672
00:45:18.090 : 00:45:18.090
00:53:35.963 : 00:53:35.963
01:00:50.605 : 01:00:50.605
01:06:58.306 : 01:06:58.306
01:14:15.409 : 01:14:15.409
01:21:14.828 : 01:21:14.828
x264 [info]: frame I:1627 Avg QP:14.55 size: 74236
x264 [info]: frame P:122165 Avg QP:18.72 size: 4853
x264 [info]: mb I I16..4: 21.8% 0.0% 78.2%
x264 [info]: mb P I16..4: 0.4% 0.0% 1.0% P16..4: 16.0% 5.1% 3.7% 1.3% 0.8% skip:71.7%
x264 [info]: coded y,uvDC,uvAC intra: 75.8% 82.5% 68.9% inter: 8.7% 10.9% 3.6%
x264 [info]: i16 v,h,dc,p: 41% 20% 16% 24%
x264 [info]: i4 v,h,dc,ddl,ddr,vr,hd,vl,hu: 26% 17% 15% 6% 6% 8% 6% 8% 6%
x264 [info]: i8c dc,h,v,p: 48% 19% 24% 9%
x264 [info]: ref P L0: 72.3% 27.7%
x264 [info]: kb/s:1105.78





   Похожие торренты   Торрент   Размер 
В этой теме нет новых непрочитанных сообщений. Иван Царевич и Серый Волк 2 (2013) BDRip-AVC | iPhone | Лицензия

46 | 12

691.89 МБ

В этой теме нет новых непрочитанных сообщений. Иван Царевич и Серый Волк (2011) HDRip | Лицензия

253 | 17

699.64 МБ

В этой теме нет новых непрочитанных сообщений. Иван Царевич и Серый волк (2011) PC

180 | 14

1.57 ГБ

В этой теме нет новых непрочитанных сообщений. Иван Царевич и Серый Волк (2011) BDRip-AVC от R.G. AVI | AVC

73 | 11

1.46 ГБ

В этой теме нет новых непрочитанных сообщений. Иван Царевич и Серый Волк (2011) Blu-Ray Remux

131 | 12

9.07 ГБ

В этой теме нет новых непрочитанных сообщений. Иван Царевич и Серый Волк (2011) DVDRip-AVC

187 | 10

700.29 МБ

В этой теме нет новых непрочитанных сообщений. Иван Царевич и Серый Волк 2 (2013) HDRip | Лицензия

4566 | 168

1.37 ГБ




Вы не можете начинать темы
Вы не можете отвечать на сообщения
Вы не можете редактировать свои сообщения
Вы не можете удалять свои сообщения
Вы не можете добавлять вложения

Перейти:  
Для Мосгорсуда, Роскомнадзора и рекламодателей: mosgorsud-torrent[собачка]yandex.ru
 Вход
ppkBB3cker v.2 © 2008-2014 @ PPK
[ Time : 0.032s | 15 Queries | GZIP : Off ]

Торрент трекер RUTOR.IN, Не можете зайти на rutor.org? Какой новый адрес рутор? Какое зеркало рутор? Не работает rutor.org и зеркала? Тогда наш торрент специально для вас. Rutor.in неофициальное зеркало rutor. В случае если у Вас заблокирован rutor или вдруг Вы не можете на него зайти, то Вы без труда сможете скачать бесплатно и без рекламы последние новинки кино, игр, сериалов и прочего у нас, на Rutor.in. Не нужно использовать прокси, чтобы зайти на рутор, достаточно воспользоваться нашим ресурсом. Все новые фильмы, игры, сериалы, книги и музыка за 2013 и 2014 годы через торрент бесплатно. Скачивайте фильмы в хорошем качестве, игры для пк, xbox, playstation без регистрации. У нас вы найдете новые Зарубежные сериалы и Русские сериалы 2013, 2014, 2015 годов. Оставайтесь с нами, качайте любимые фильмы, игры, сериалы, книги и музыку.