img image001 image001 image001 image001 image001 image001 image001 image001 image001 image001 image001 image001 image001 image001 image001

Planets Sun Sun Sun
Статистика раздачи
Автор: PriZraK | Размер: 1.41 ГБ | Добавлен: 15 фев 2014
Раздают: 123    Качают: 24
Скачать торрент
Скачать торрент
Описание торрента

СообщениеДобавлено: 15 фев 2014 




Год выпуска: 2013
Жанр: мультфильм, приключения, семейный, фэнтези
Режиссер: Владимир Торопчин
Актеры: Никита Ефремов, Татьяна Бунина, Иван Охлобыстин, Михаил Боярский, Ирина Рахманова, Александр Боярский

Описание:
В Тридевятом царстве, где живут наши герои — тишь, да благодать. Иван женился на Василисе, и «жили они долго и счастливо», да не тут-то было. Иван целыми днями пропадает с Волком на службе — укрепляет рубежи и оборонную мощь, мечтает перевести стрелки часов на семь часов назад, чтобы меньше спать, и больше работать. А Василисе — скучно, как всем девушкам, ей хочется романтики, ну, такой, как в сказках. И тогда она решает организовать свое похищение… Однако, когда такое бывало, что в сказках все получалось так, как задумывалось?



Страна: Россия
Продолжительность: 01:12:37
Перевод: Оригинал

Файл
Формат: MKV
Качество видео: BDRip-AVC
Видео: AVC, 1136x640, 2360 kbps
Аудио: 48 kHz, AC3 Dolby Digital, 3/2 (L,C,R,l,r) + LFE ch, 448.00 kbps

General
Unique ID : 171492755020698608366959317400579517840 (0x81044D9F6E7BC97F93AEBE4FBF5CAD90)
Complete name : D:Ivan.i.Volk_2.(2013).BDRip-AVC[-=DoMiNo=-].mkv
Format : Matroska
Format version : Version 2
File size : 1.41 GiB
Duration : 1h 12mn
Overall bit rate : 2 783 Kbps
Encoded date : UTC 2014-02-05 17:17:40
Writing application : mkvmerge v5.8.0 ('No Sleep / Pillow') built on Sep 2 2012 15:37:04
Writing library : libebml v1.2.3 + libmatroska v1.3.0

Video
ID : 1
Format : AVC
Format/Info : Advanced Video Codec
Format profile : High@L4.1
Format settings, CABAC : Yes
Format settings, ReFrames : 12 frames
Codec ID : V_MPEG4/ISO/AVC
Duration : 1h 12mn
Bit rate : 2 359 Kbps
Width : 1 136 pixels
Height : 640 pixels
Display aspect ratio : 16:9
Frame rate mode : Constant
Frame rate : 24.000 fps
Color space : YUV
Chroma subsampling : 4:2:0
Bit depth : 8 bits
Scan type : Progressive
Bits/(Pixel*Frame) : 0.135
Stream size : 1.16 GiB (82%)
Writing library : x264 core 125 r2208 d9d2288
Encoding settings : cabac=1 / ref=12 / deblock=1:-2:-1 / analyse=0x3:0x133 / me=umh / subme=9 / psy=1 / psy_rd=1.01:0.15 / mixed_ref=1 / me_range=16 / chroma_me=1 / trellis=1 / 8x8dct=1 / cqm=0 / deadzone=21,11 / fast_pskip=0 / chroma_qp_offset=-6 / threads=6 / lookahead_threads=1 / sliced_threads=0 / slices=4 / nr=0 / decimate=1 / interlaced=fake / bluray_compat=0 / constrained_intra=0 / bframes=8 / b_pyramid=2 / b_adapt=2 / b_bias=0 / direct=2 / weightb=1 / open_gop=1 / weightp=2 / keyint=250 / keyint_min=23 / scenecut=40 / intra_refresh=0 / rc_lookahead=60 / rc=abr / mbtree=1 / bitrate=2359 / ratetol=1.0 / qcomp=0.60 / qpmin=2 / qpmax=69 / qpstep=4 / ip_ratio=1.40 / aq=2:1.20
Default : Yes
Forced : No

Audio
ID : 2
Format : AC-3
Format/Info : Audio Coding 3
Mode extension : CM (complete main)
Format settings, Endianness : Big
Codec ID : A_AC3
Duration : 1h 12mn
Bit rate mode : Constant
Bit rate : 448 Kbps
Channel(s) : 6 channels
Channel positions : Front: L C R, Side: L R, LFE
Sampling rate : 48.0 KHz
Bit depth : 16 bits
Compression mode : Lossy
Stream size : 233 MiB (16%)
Default : Yes
Forced : No





   Похожие торренты   Торрент   Размер 
В этой теме нет новых непрочитанных сообщений. Иван Царевич и Серый Волк 2 (2013) BDRip-AVC от HELLYWOOD | Лицензия

620 | 15

699.94 МБ

В этой теме нет новых непрочитанных сообщений. Иван Царевич и Серый Волк 2 (2013) BDRip-AVC | iPhone | Лицензия

46 | 12

691.89 МБ

В этой теме нет новых непрочитанных сообщений. Иван Царевич и Серый Волк 2 (2013) BDRip от Deadmauvlad | Лицензия

1135 | 36

746.49 МБ

В этой теме нет новых непрочитанных сообщений. Иван Царевич и Серый Волк 2 (2013) BDRip от HQCLUB | Лицензия

702 | 34

1.09 ГБ

В этой теме нет новых непрочитанных сообщений. Иван Царевич и Серый Волк 2 (2013) BDRip 720p | Лицензия

261 | 35

3.23 ГБ

В этой теме нет новых непрочитанных сообщений. Иван Царевич и Серый Волк: Дилогия (2011-2013) BDRip | Лицензия

1025 | 50

2.54 ГБ

В этой теме нет новых непрочитанных сообщений. Иван Царевич и Серый Волк 2 (2013) BDRip-AVC от Leonardo and Scarabey | Лицензия

197 | 22

1.22 ГБ




Вы не можете начинать темы
Вы не можете отвечать на сообщения
Вы не можете редактировать свои сообщения
Вы не можете удалять свои сообщения
Вы не можете добавлять вложения

Перейти:  
Для Мосгорсуда, Роскомнадзора и рекламодателей: mosgorsud-torrent[собачка]yandex.ru
 Вход
ppkBB3cker v.2 © 2008-2014 @ PPK
[ Time : 0.028s | 14 Queries | GZIP : Off ]

Торрент трекер RUTOR.IN, Не можете зайти на rutor.org? Какой новый адрес рутор? Какое зеркало рутор? Не работает rutor.org и зеркала? Тогда наш торрент специально для вас. Rutor.in неофициальное зеркало rutor. В случае если у Вас заблокирован rutor или вдруг Вы не можете на него зайти, то Вы без труда сможете скачать бесплатно и без рекламы последние новинки кино, игр, сериалов и прочего у нас, на Rutor.in. Не нужно использовать прокси, чтобы зайти на рутор, достаточно воспользоваться нашим ресурсом. Все новые фильмы, игры, сериалы, книги и музыка за 2013 и 2014 годы через торрент бесплатно. Скачивайте фильмы в хорошем качестве, игры для пк, xbox, playstation без регистрации. У нас вы найдете новые Зарубежные сериалы и Русские сериалы 2013, 2014, 2015 годов. Оставайтесь с нами, качайте любимые фильмы, игры, сериалы, книги и музыку.