img image001 image001 image001 image001 image001 image001 image001 image001 image001 image001 image001 image001 image001 image001 image001

Planets Sun Sun Sun
Статистика раздачи
Автор: PriZraK | Размер: 691.89 МБ | Добавлен: 15 фев 2014
Раздают: 46    Качают: 12
Скачать торрент
Скачать торрент
Описание торрента

СообщениеДобавлено: 15 фев 2014 



Информация о фильме

Название: Иван Царевич и Серый Волк 2
Оригинальное название: Иван Царевич и Серый Волк 2
Год выхода: 2013
Жанр: мультфильм
Режиссер: Владимир Торопчин
В ролях: Никита Ефремов, Татьяна Бунина, Иван Охлобыстин, Михаил Боярский, Ирина Рахманова, Александр Боярский

О фильме:
В Тридевятом царстве, где живут наши герои — тишь, да благодать. Иван женился на Василисе, и «жили они долго и счастливо», да не тут-то было. Иван целыми днями пропадает с Волком на службе — укрепляет рубежи и оборонную мощь, мечтает перевести стрелки часов на семь часов назад, чтобы меньше спать, и больше работать. А Василисе — скучно, как всем девушкам, ей хочется романтики, ну, такой, как в сказках. И тогда она решает организовать свое похищение… Однако, когда такое бывало, что в сказках все получалось так, как задумывалось?



Страна: Россия
Студия: Анимационная студия Мельница, Кинокомпания CTB
Продолжительность: 01:12:38
Перевод: не требуется

Файл
Кодек: H.264
Качество: BDRip-AVC 480p iPhone Исходник : Blu-ray
Видео: 640x480 (851x480 анаморф) at 24.00 fps, AVC at 1162 kbps avg
Звук:
48 kHz, AAC 2.0, 170 kbps - Русский
Субтитры: нет

Sort Name: Иван Царевич и Серый Волк 2
XID: Apple:vendor_id:2013-707217
contentID: 707217
Copyright: © Анимационная студия Мельница, Кинокомпания CTB
Screenwriters: Владимир Торопчин, Александр Боярский
Producers: Сергей Сельянов, Александр Боярский
Director: Владимир Торопчин
Cast: Никита Ефремов, Татьяна Бунина, Иван Охлобыстин, Михаил Боярский, Ирина Рахманова, Александр Боярский
Rating: 2
Long Deion: В Тридевятом царстве, где живут наши герои — тишь, да благодать. Иван женился на Василисе, и «жили они долго и счастливо», да не тут-то было. Иван целыми днями пропадает с Волком на службе — укрепляет рубежи и оборонную мощь, мечтает перевести стрелки часов на семь часов назад, чтобы меньше спать, и больше работать. А Василисе — скучно, как всем девушкам, ей хочется романтики, ну, такой, как в сказках. И тогда она решает организовать свое похищение… Однако, когда такое бывало, что в сказках все получалось так, как задумывалось?
Deion: В Тридевятом царстве, где живут наши герои — тишь, да благодать. Иван женился на Василисе, и «жили они долго и счастливо», да не тут-то было. Иван целыми днями пропадает с Волком на службе — укрепляет рубежи и оборонную мощь...
Release Date: 2013-12-26T08:00:00Z
Genre: Animation
Comments: «Любимые герои, новые приключения»
Artist: Владимир Торопчин
Name: Иван Царевич и Серый Волк 2
Общее
Полное имя : /Users/gekkas/Movies/CREATE/Ivan Tsarevich i Seryy Volk.2.2013 (SD).m4v
Формат : MPEG-4
Идентификатор кодека : M4V
Размер файла : 692 Мбайт
Продолжительность : 1 ч. 12 м.
Режим общего битрейта : Переменный
Общий поток : 1332 Кбит/сек
Название фильма : Иван Царевич и Серый Волк 2
Исполнитель : Владимир Торопчин
Жанр : Animation
Тип содержимого : Short Film
Описание : В Тридевятом царстве, где живут наши герои — тишь, да благодать. Иван женился на Василисе, и «жили они долго и счастливо», да не тут-то было. Иван целыми днями пропадает с Волком на службе — укрепляет рубежи и оборонную мощь...
Дата записи : UTC 2013-12-26 08:00:00
Дата кодирования : UTC 2014-02-05 14:00:32
Дата пометки : UTC 2014-02-05 14:40:04
Правообладатель : © Анимационная студия Мельница, Кинокомпания CTB
Обложка : Yes
Примечание : «Любимые герои, новые приключения»
Рейтинг : None
Title/Sort : Иван Царевич и Серый Волк 2
LongDeion : В Тридевятом царстве, где живут наши герои — тишь, да благодать. Иван женился на Василисе, и «жили они долго и счастливо», да не тут-то было. Иван целыми днями пропадает с Волком на службе — укрепляет рубежи и оборонную мощь, мечтает перевести стрелки часов на семь часов назад, чтобы меньше спать, и больше работать. А Василисе — скучно, как всем девушкам, ей хочется романтики, ну, такой, как в сказках. И тогда она решает организовать свое похищение… Однако, когда такое бывало, что в сказках все получалось так, как задумывалось?
AppleStoreCatalogID : 707217
Vendor : Apple:vendor_id:2013-707217
ContentRating : mpaa|G|100|

Видео #1
Идентификатор : 1
Формат : AVC
Формат/Информация : Advanced Video Codec
Профиль формата : Baseline@L3.0
Параметр CABAC формата : Нет
Параметр ReFrames формата : 2 кадра
Идентификатор кодека : avc1
Идентификатор кодека/Информация : Advanced Video Coding
Продолжительность : 1 ч. 12 м.
Битрейт : 1162 Кбит/сек
Максимальный битрейт : 8933 Кбит/сек
Ширина : 640 пикселей
Высота : 480 пикселей
Соотношение сторон : 16:9
Режим частоты кадров : Постоянный
Частота кадров : 24,000 кадра/сек
Цветовое пространство : YUV
Субдискретизация насыщенности : 4:2:0
Битовая глубина : 8 бит
Тип развёртки : Прогрессивная
Бит/(Пиксели*Кадры) : 0.158
Размер потока : 604 Мбайт (87%)
Заголовок : Ivan Czarevich and the Grey Wolf II _2013_
Библиотека кодирования : x264 core 140 r2377+40 929f149 tMod [8-bit@4:2:0 X86_64]
Настройки программы : cabac=0 / ref=2 / deblock=1:-1:-1 / analyse=0x1:0x131 / me=umh / subme=7 / psy=1 / fade_compensate=0.10 / psy_rd=1.00:0.00 / mixed_ref=1 / me_range=32 / chroma_me=1 / trellis=2 / 8x8dct=0 / cqm=0 / deadzone=21,11 / fast_pskip=1 / chroma_qp_offset=-2 / threads=12 / lookahead_threads=2 / sliced_threads=0 / nr=0 / decimate=1 / interlaced=0 / bluray_compat=0 / constrained_intra=0 / fgo=0 / bframes=0 / weightp=0 / keyint=250 / keyint_min=24 / scenecut=40 / intra_refresh=0 / rc_lookahead=40 / rc=crf / mbtree=1 / crf=19.0000 / qcomp=0.60 / qpmin=0:0:0 / qpmax=69:69:69 / qpstep=4 / vbv_maxrate=5000 / vbv_bufsize=5000 / crf_max=0.0 / nal_hrd=none / filler=0 / ip_ratio=1.40 / aq=1:1.00 / aq-sensitivity=10.00 / aq-factor=1.00:1.00:1.00 / aq2=0 / aq3=0
Язык : Russian
Дата кодирования : UTC 2014-02-05 14:00:32
Дата пометки : UTC 2014-02-05 14:00:42
Коэффициенты матрицы : BT.709

Видео #2
Идентификатор : 5
Формат : JPEG
Идентификатор кодека : jpeg
Продолжительность : 1 ч. 12 м.
Вид битрейта : Переменный
Битрейт : 522 бит/сек
Ширина : 640 пикселей
Высота : 360 пикселей
Соотношение сторон : 16:9
Режим частоты кадров : Переменный
Частота кадров : 0,001 кадр/сек
Минимальная частота кадров : 0,001 кадр/сек
Максимальная частота кадров : 0,002 кадр/сек
Цветовое пространство : YUV
Субдискретизация насыщенности : 4:2:0
Битовая глубина : 8 бит
Метод сжатия : С потерями
Бит/(Пиксели*Кадры) : 2.266
Размер потока : 382 Кбайт (0%)
Язык : Russian
Дата кодирования : UTC 2014-02-05 14:40:01
Дата пометки : UTC 2014-02-05 14:40:01

Аудио
Идентификатор : 2
Формат : AAC
Формат/Информация : Advanced Audio Codec
Профиль формата : LC
Идентификатор кодека : 40
Продолжительность : 1 ч. 12 м.
Вид битрейта : Переменный
Битрейт : 164 Кбит/сек
Максимальный битрейт : 237 Кбит/сек
Каналы : 2 канала
Расположение каналов : Front: L R
Частота : 48,0 КГц
Метод сжатия : С потерями
Размер потока : 85,3 Мбайт (12%)
Заголовок : AAC Original
Язык : Russian
Дата кодирования : UTC 2014-02-05 13:59:03
Дата пометки : UTC 2014-02-05 14:00:42

Меню
Идентификатор : 4
Идентификатор кодека : text
Продолжительность : 1 ч. 12 м.
Язык : Russian
Дата кодирования : UTC 2014-02-05 14:00:48
Дата пометки : UTC 2014-02-05 14:00:48
Вид битрейта : CBR
00:00:00.000 : 00:00:00.000
00:08:56.292 : 00:08:56.292
00:17:20.708 : 00:17:20.708
00:30:52.708 : 00:30:52.708
00:42:35.792 : 00:42:35.792
01:00:23.875 : 01:00:23.875
x264 [info]: frame I:1551 Avg QP:15.59 size: 60544
x264 [info]: frame P:103036 Avg QP:19.22 size: 5234
x264 [info]: mb I I16..4: 26.6% 0.0% 73.4%
x264 [info]: mb P I16..4: 0.6% 0.0% 1.1% P16..4: 20.4% 6.1% 4.3% 1.3% 0.8% skip:65.3%
x264 [info]: coded y,uvDC,uvAC intra: 66.6% 72.7% 56.4% inter: 9.8% 12.8% 4.0%
x264 [info]: i16 v,h,dc,p: 43% 20% 14% 23%
x264 [info]: i4 v,h,dc,ddl,ddr,vr,hd,vl,hu: 27% 17% 17% 6% 6% 10% 6% 7% 5%
x264 [info]: i8c dc,h,v,p: 52% 19% 22% 7%
x264 [info]: ref P L0: 68.8% 31.2%
x264 [info]: kb/s:1162.33




   Похожие торренты   Торрент   Размер 
В этой теме нет новых непрочитанных сообщений. Иван Царевич и Серый Волк (2011) HDRip-AVC | iPhone

71 | 10

787.17 МБ

В этой теме нет новых непрочитанных сообщений. Иван Царевич и Серый Волк 2 (2013) BDRip-AVC | Лицензия

123 | 24

1.41 ГБ

В этой теме нет новых непрочитанных сообщений. Иван Царевич и Серый Волк 2 (2013) BDRip от HQCLUB | Лицензия

702 | 34

1.09 ГБ

В этой теме нет новых непрочитанных сообщений. Иван Царевич и Серый Волк 2 (2013) BDRip от Deadmauvlad | Лицензия

1135 | 36

746.49 МБ

В этой теме нет новых непрочитанных сообщений. Иван Царевич и Серый Волк 2 (2013) BDRip 720p | Лицензия

261 | 35

3.23 ГБ

В этой теме нет новых непрочитанных сообщений. Иван Царевич и Серый Волк 2 (2013) BDRip-AVC от HELLYWOOD | Лицензия

620 | 15

699.94 МБ

В этой теме нет новых непрочитанных сообщений. Иван Царевич и Серый Волк 2 (2013) BDRip 720p от HELLYWOOD | Лицензия

353 | 16

2.92 ГБ




Вы не можете начинать темы
Вы не можете отвечать на сообщения
Вы не можете редактировать свои сообщения
Вы не можете удалять свои сообщения
Вы не можете добавлять вложения

Перейти:  
Для Мосгорсуда, Роскомнадзора и рекламодателей: mosgorsud-torrent[собачка]yandex.ru
 Вход
ppkBB3cker v.2 © 2008-2014 @ PPK
[ Time : 0.067s | 15 Queries | GZIP : Off ]

Торрент трекер RUTOR.IN, Не можете зайти на rutor.org? Какой новый адрес рутор? Какое зеркало рутор? Не работает rutor.org и зеркала? Тогда наш торрент специально для вас. Rutor.in неофициальное зеркало rutor. В случае если у Вас заблокирован rutor или вдруг Вы не можете на него зайти, то Вы без труда сможете скачать бесплатно и без рекламы последние новинки кино, игр, сериалов и прочего у нас, на Rutor.in. Не нужно использовать прокси, чтобы зайти на рутор, достаточно воспользоваться нашим ресурсом. Все новые фильмы, игры, сериалы, книги и музыка за 2013 и 2014 годы через торрент бесплатно. Скачивайте фильмы в хорошем качестве, игры для пк, xbox, playstation без регистрации. У нас вы найдете новые Зарубежные сериалы и Русские сериалы 2013, 2014, 2015 годов. Оставайтесь с нами, качайте любимые фильмы, игры, сериалы, книги и музыку.