img image001 image001 image001 image001 image001 image001 image001 image001 image001 image001 image001 image001 image001 image001 image001

Planets Sun Sun Sun
Статистика раздачи
Автор: PriZraK | Размер: 2.65 ГБ | Добавлен: 15 фев 2014
Раздают: 127    Качают: 14
Скачать торрент
Скачать торрент
Описание торрента

СообщениеДобавлено: 15 фев 2014 




Информация о фильме
Название: Лига справедливости: Война
Оригинальное название: Justice League: War
Год выхода: 2014
Жанр: фантастика, фэнтези, боевик, приключения
Режиссер: Джей Олива
В ролях: Шон Эстин, Зак Каллисон, Кристофер Горам, Джастин Кирк, Мишель Монахэн, Шемар Мур, Джейсон О’Мара, Алан Тьюдик, Стивен Блум, Ди Брэдли Бейкер
Роли озвучивали: Тимиркан Сиюхов и Маргарита Щелкунова

О фильме: Лучшие герои мира решают создать Лигу Справедливости, чтобы остановить инопланетное вторжение на Землю.

Продолжительность: 01:19:24
Перевод: Любительский (двухголосый) [LE-Production]
Субтитры: отсутствуют
Перевод на русский: Dakota Family Translators

Файл
Кодек: MKV
Качество: WEB-DL 720p
Видео: 1280 x 718 (16:9) at 23.976, AVC (x264), High@L3.1, 3921 Kbps avg, 0.178 bit/pixel
Звук:
Аудио #1 русский: 48 kHz, AC3 Dolby Digital, 3/2 (L,C,R,l,r) + LFE ch, ~384.00 kbps avg | LE-Production |
Аудио #2 английский: 48 kHz, AC3 Dolby Digital, 3/2 (L,C,R,l,r) + LFE ch, ~384.00 kbps avg | Оригинал |

Семпл

Релиз от:

Общее
Полное имя : Justice.League.War.2014.720p.WEB-DL.le-production.mkv
Формат : Matroska
Размер файла : 2,65 Гбайт
Продолжительность : 1 ч. 19 м.
Общий поток : 4784 Кбит/сек
Дата кодирования : UTC 2014-02-05 13:38:13
Программа кодирования : mkvmerge v6.7.0 ('Back to the Ground') 64bit built on Jan 8 2014 15:10:52
Библиотека кодирования : libebml v1.3.0 + libmatroska v1.4.1

Видео
Идентификатор : 1
Формат : AVC
Формат/Информация : Advanced Video Codec
Профиль формата : High@L3.1
Параметр CABAC формата : Нет
Параметр ReFrames формата : 2 кадры
Параметры GOP формата : M=2, N=25
Идентификатор кодека : V_MPEG4/ISO/AVC
Продолжительность : 1 ч. 19 м.
Битрейт : 3921 Кбит/сек
Ширина : 1280 пикс.
Высота : 718 пикс.
Соотношение сторон : 16:9
Частота кадров : 23,976 кадр/сек
Цветовое пространство : YUV
Подвыборка цветности : 4:2:0
Битовая глубина : 8 бит
Тип развёртки : Прогрессивная
Бит/(Пиксели*Кадры) : 0.178
Размер потока : 2,17 Гбайт (82%)
Язык : Russian
Основные цвета : BT.709-5, BT.1361, IEC 61966-2-4, SMPTE RP177
Характеристики трансфера : BT.709-5, BT.1361
Коэффициенты матрицы : BT.709-5, BT.1361, IEC 61966-2-4 709, SMPTE RP177

Аудио #1
Идентификатор : 2
Формат : AC-3
Формат/Информация : Audio Coding 3
Расширение режима : CM (complete main)
Идентификатор кодека : A_AC3
Продолжительность : 1 ч. 19 м.
Вид битрейта : Постоянный
Битрейт : 384 Кбит/сек
Канал(ы) : 6 канала(ов)
Расположение каналов : Front: L C R, Side: L R, LFE
Частота : 48,0 КГц
Битовая глубина : 16 бит
Метод сжатия : С потерями
Размер потока : 218 Мбайт (8%)
Заголовок : LE-Production(Тимиркан Сиюхов и Маргарита Щелкунова)
Язык : Russian

Аудио #2
Идентификатор : 3
Формат : AC-3
Формат/Информация : Audio Coding 3
Расширение режима : CM (complete main)
Идентификатор кодека : A_AC3
Продолжительность : 1 ч. 19 м.
Вид битрейта : Постоянный
Битрейт : 384 Кбит/сек
Канал(ы) : 6 канала(ов)
Расположение каналов : Front: L C R, Side: L R, LFE
Частота : 48,0 КГц
Битовая глубина : 16 бит
Метод сжатия : С потерями
Размер потока : 218 Мбайт (8%)
Язык : English

Меню
00:00:00.000 : en:1.
00:10:19.000 : en:2.
00:20:15.000 : en:3.
00:30:59.000 : en:4.
00:39:38.000 : en:5.
00:50:33.000 : en:6.
00:59:21.000 : en:7.
01:11:14.000 : en:8.
01:15:49.000 : en:9.





   Похожие торренты   Торрент   Размер 
В этой теме нет новых непрочитанных сообщений. Лига справедливости: Война / Justice League: War (2014) HDRip | LE-Production

148 | 37

1.47 ГБ

В этой теме нет новых непрочитанных сообщений. Лига справедливости: Война / Justice League: War (2014) WEB-DL 1080p | P1

76 | 9

3.33 ГБ

В этой теме нет новых непрочитанных сообщений. Лига справедливости: Война / Justice League: War (2014) WEB-DLRip | L1

208 | 31

737.54 МБ

В этой теме нет новых непрочитанных сообщений. Лига справедливости: Война / Justice League: War (2014) WEB-DLRip | L

217 | 16

1.41 ГБ

В этой теме нет новых непрочитанных сообщений. Лига справедливости: Война / Justice League: War (2014) WEB-DLRip-AVC от ExKinoRay | L1

49 | 2

1.21 ГБ

В этой теме нет новых непрочитанных сообщений. Лига справедливости: Война / Justice League: War (2014) HDRip | BaibaKo

928 | 59

1.37 ГБ

В этой теме нет новых непрочитанных сообщений. Лига Справедливости против Юных Титанов / Justice League vs. Teen Titans (2016) BDRip 720p | LE-Production

145 | 11

3.12 ГБ




Вы не можете начинать темы
Вы не можете отвечать на сообщения
Вы не можете редактировать свои сообщения
Вы не можете удалять свои сообщения
Вы не можете добавлять вложения

Перейти:  
Для Мосгорсуда, Роскомнадзора и рекламодателей: mosgorsud-torrent[собачка]yandex.ru
 Вход
ppkBB3cker v.2 © 2008-2014 @ PPK
[ Time : 0.042s | 16 Queries | GZIP : Off ]

Торрент трекер RUTOR.IN, Не можете зайти на rutor.org? Какой новый адрес рутор? Какое зеркало рутор? Не работает rutor.org и зеркала? Тогда наш торрент специально для вас. Rutor.in неофициальное зеркало rutor. В случае если у Вас заблокирован rutor или вдруг Вы не можете на него зайти, то Вы без труда сможете скачать бесплатно и без рекламы последние новинки кино, игр, сериалов и прочего у нас, на Rutor.in. Не нужно использовать прокси, чтобы зайти на рутор, достаточно воспользоваться нашим ресурсом. Все новые фильмы, игры, сериалы, книги и музыка за 2013 и 2014 годы через торрент бесплатно. Скачивайте фильмы в хорошем качестве, игры для пк, xbox, playstation без регистрации. У нас вы найдете новые Зарубежные сериалы и Русские сериалы 2013, 2014, 2015 годов. Оставайтесь с нами, качайте любимые фильмы, игры, сериалы, книги и музыку.