img image001 image001 image001 image001 image001 image001 image001 image001 image001 image001 image001 image001 image001 image001 image001

Planets Sun Sun Sun
Статистика раздачи
Автор: PriZraK | Размер: 5.76 ГБ | Добавлен: 15 фев 2014
Раздают: 295    Качают: 38
Скачать торрент
Скачать торрент
Описание торрента

СообщениеДобавлено: 15 фев 2014 



Информация о фильме
    Русское название: Облачно... 2: Месть ГМО
    Оригинальное название: Cloudy with a Chance of Meatballs 2
    Год выхода: 2013
    Жанр: Фантастика, комедия, семейный
    Режиссер: Коуди Камерон, Крис Пирн
    Выпущено: США
    Продолжительность: 01:34:49
    Перевод: Дублированный
    В ролях: Билл Хейдер, Анна Фэрис, Джеймс Каан, Уилл Форте, Энди Сэмберг, Бенджамин Брэтт, Нил Патрик Харрис, Терри Крюс, Кристен Шол, Коуди Камерон


Сюжет фильма
    Все жители острова Поплавок покинули родной дом после событий предыдущего мультфильма. Главный герой Флинт Локвуд теперь работает в компании The Live Corp на своего кумира Честера. Но ему придется оставить свой пост когда он узнает, что его печально-известная машина все ещё работает и производит на свет опасных гибридов. Флинту предстоит ещё раз спасти мир и не дать коварной машине распространить громадную еду по всему миру.


Файл
    Качество: BDRip 1080p (исходник Blu-ray Disc)
    Видео: 1920x800, 7411 Кбит/сек, 23,976 кадр/сек, AVC, x264, High@L4.1, 2.40:1, 0.201 Бит/[Пиксели*Кадры], 2pass
    Аудио 1: AC-3, 640 Кбит/сек, 6 канала(ов), 48,0 КГц - Дублированный / Русский
    Аудио 2: AC-3, 640 Кбит/сек, 6 канала(ов), 48,0 КГц - Оригинал / Английский
    Субтитры: Русские | Полные, Английские | Полные
    Чаптеры (Главы): Есть



Автор Рипа: Сообщество:



Format : Matroska
Format version : Version 2
File size : 5.76 GiB
Duration : 1h 34mn
Overall bit rate : 8 695 Kbps
Movie name : Облачно... 2: Месть ГМО.(2013).BDRip.1080p.[envy]
Encoded date : UTC 2014-02-07 06:59:38
Writing application : mkvmerge v5.8.0 ('No Sleep / Pillow') built on Sep 2 2012 15:37:04
Writing library : libebml v1.2.3 + libmatroska v1.3.0

Video
ID : 1
Format : AVC
Format/Info : Advanced Video Codec
Format profile : High@L4.1
Format settings, CABAC : Yes
Format settings, ReFrames : 5 frames
Codec ID : V_MPEG4/ISO/AVC
Duration : 1h 34mn
Bit rate : 7 411 Kbps
Width : 1 920 pixels
Height : 800 pixels
Display aspect ratio : 2.40:1
Frame rate mode : Constant
Frame rate : 23.976 fps
Color space : YUV
Chroma subsampling : 4:2:0
Bit depth : 8 bits
Scan type : Progressive
Bits/(Pixel*Frame) : 0.201
Stream size : 4.80 GiB (83%)
Title : Облачно... 2: Месть ГМО.(2013).BDRip.1080p.[envy]
Writing library : x264 core 140 r2377 1ca7bb9
Encoding settings : cabac=1 / ref=5 / deblock=1:0:0 / analyse=0x3:0x133 / me=umh / subme=11 / psy=1 / psy_rd=1.00:0.00 / mixed_ref=1 / me_range=32 / chroma_me=1 / trellis=2 / 8x8dct=1 / cqm=0 / deadzone=21,11 / fast_pskip=0 / chroma_qp_offset=-2 / threads=12 / lookahead_threads=1 / sliced_threads=0 / nr=0 / decimate=1 / interlaced=0 / bluray_compat=0 / constrained_intra=0 / bframes=5 / b_pyramid=2 / b_adapt=2 / b_bias=0 / direct=3 / weightb=1 / open_gop=0 / weightp=2 / keyint=240 / keyint_min=23 / scenecut=40 / intra_refresh=0 / rc=2pass / mbtree=0 / bitrate=7411 / ratetol=2.0 / qcomp=0.60 / qpmin=0 / qpmax=69 / qpstep=4 / cplxblur=20.0 / qblur=0.5 / ip_ratio=1.40 / pb_ratio=1.30 / aq=1:1.00
Language : English
Default : Yes
Forced : No

Audio #1
ID : 2
Format : AC-3
Format/Info : Audio Coding 3
Mode extension : CM (complete main)
Format settings, Endianness : Big
Codec ID : A_AC3
Duration : 1h 34mn
Bit rate mode : Constant
Bit rate : 640 Kbps
Channel count : 6 channels
Channel positions : Front: L C R, Side: L R, LFE
Sampling rate : 48.0 KHz
Bit depth : 16 bits
Compression mode : Lossy
Stream size : 434 MiB (7%)
Title : Dub
Language : Russian
Default : Yes
Forced : No

Audio #2
ID : 3
Format : AC-3
Format/Info : Audio Coding 3
Mode extension : CM (complete main)
Format settings, Endianness : Big
Codec ID : A_AC3
Duration : 1h 34mn
Bit rate mode : Constant
Bit rate : 640 Kbps
Channel count : 6 channels
Channel positions : Front: L C R, Side: L R, LFE
Sampling rate : 48.0 KHz
Bit depth : 16 bits
Compression mode : Lossy
Stream size : 434 MiB (7%)
Title : Eng
Language : English
Default : No
Forced : No

Text #1
ID : 4
Format : UTF-8
Codec ID : S_TEXT/UTF8
Codec ID/Info : UTF-8 Plain Text
Title : rus full
Language : Russian
Default : No
Forced : No

Text #2
ID : 5
Format : UTF-8
Codec ID : S_TEXT/UTF8
Codec ID/Info : UTF-8 Plain Text
Title : eng full
Language : English
Default : No
Forced : No

Menu
00:00:00.000 : :Chapter 01
00:07:12.014 : :Chapter 02
00:12:51.520 : :Chapter 03
00:18:50.420 : :Chapter 04
00:25:58.390 : :Chapter 05
00:31:57.081 : :Chapter 06
00:36:53.252 : :Chapter 07
00:39:28.908 : :Chapter 08
00:41:07.840 : :Chapter 09
00:45:28.016 : :Chapter 10
00:49:48.694 : :Chapter 11
00:54:41.403 : :Chapter 12
01:00:39.886 : :Chapter 13
01:06:47.920 : :Chapter 14
01:12:54.953 : :Chapter 15
01:21:25.589 : :Chapter 16


При поддержке:



   Похожие торренты   Торрент   Размер 
В этой теме нет новых непрочитанных сообщений. Облачно... 2: Месть ГМО / Cloudy with a Chance of Meatballs 2 (2013) BDRip 1080p от Ash61 | 3D-Video | halfOU | Лицензия

137 | 22

7.01 ГБ

В этой теме нет новых непрочитанных сообщений. Облачно... 2: Месть ГМО / Cloudy with a Chance of Meatballs 2 (2013) BDRip от HQCLUB | Лицензия

1010 | 93

1.45 ГБ

В этой теме нет новых непрочитанных сообщений. Облачно... 2: Месть ГМО / Cloudy with a Chance of Meatballs 2 (2013) DVD5 от New-Team | D | сжатый

116 | 10

4.37 ГБ

В этой теме нет новых непрочитанных сообщений. Облачно, возможны осадки в виде фрикаделек / Cloudy with a Chance of Meatballs (2009) BDRip 1080p

31 | 14

4.37 ГБ

В этой теме нет новых непрочитанных сообщений. Облачно, возможны осадки в виде фрикаделек / Cloudy with a Chance of Meatballs (2008) BDRip 1080p | 3D-Video

1 | 3

4.68 ГБ

В этой теме нет новых непрочитанных сообщений. Облачно, возможны осадки в виде фрикаделек / Cloudy with a Chance of Meatballs (2009) BDRip 1080p от FREEISLAND | D

81 | 32

2.44 ГБ

В этой теме нет новых непрочитанных сообщений. Облачно... 2: Мини-фильмы / Cloudy with a Chance of Meatballs 2: Mini-Movies (2013) BDRip от HQCLUB | Лицензия

206 | 8

391.34 МБ




Вы не можете начинать темы
Вы не можете отвечать на сообщения
Вы не можете редактировать свои сообщения
Вы не можете удалять свои сообщения
Вы не можете добавлять вложения

Перейти:  
Для Мосгорсуда, Роскомнадзора и рекламодателей: mosgorsud-torrent[собачка]yandex.ru
 Вход
ppkBB3cker v.2 © 2008-2014 @ PPK
[ Time : 1.340s | 17 Queries | GZIP : Off ]

Торрент трекер RUTOR.IN, Не можете зайти на rutor.org? Какой новый адрес рутор? Какое зеркало рутор? Не работает rutor.org и зеркала? Тогда наш торрент специально для вас. Rutor.in неофициальное зеркало rutor. В случае если у Вас заблокирован rutor или вдруг Вы не можете на него зайти, то Вы без труда сможете скачать бесплатно и без рекламы последние новинки кино, игр, сериалов и прочего у нас, на Rutor.in. Не нужно использовать прокси, чтобы зайти на рутор, достаточно воспользоваться нашим ресурсом. Все новые фильмы, игры, сериалы, книги и музыка за 2013 и 2014 годы через торрент бесплатно. Скачивайте фильмы в хорошем качестве, игры для пк, xbox, playstation без регистрации. У нас вы найдете новые Зарубежные сериалы и Русские сериалы 2013, 2014, 2015 годов. Оставайтесь с нами, качайте любимые фильмы, игры, сериалы, книги и музыку.