img image001 image001 image001 image001 image001 image001 image001 image001 image001 image001 image001 image001 image001 image001 image001

Planets Sun Sun Sun
Статистика раздачи
Автор: PriZraK | Размер: 1.51 ГБ | Добавлен: 15 фев 2014
Раздают: 570    Качают: 20
Скачать торрент
Скачать торрент
Описание торрента

СообщениеДобавлено: 15 фев 2014 



Семейка Крудс / The Croods (2013) BDRip-AVC [480p] | iPhone

Название: Семейка Крудс
Оригинальное название: The Croods
Год выхода: 2013
Жанр: мультфильм, фэнтези, комедия, приключения, семейный
Режиссер: Кирк де Микко, Крис Сандерс
В ролях: Николас Кейдж, Эмма Стоун, Райан Рейнольдс, Кэтрин Кинер, Клорис Личмен, Кларк Дьюк, Крис Сандерс

О фильме:
Землетрясение уничтожило дом доисторической семьи, и теперь Крудсам придётся искать другое пристанище. А вокруг новый и опасный мир! Им на помощь приходит молодой кочевник Малой, передовые взгляды которого наталкиваются на консервативность главы семьи Груга. Но только вместе они смогут выжить и достичь своей цели..и вино, пытается ужиться с женой и водит в детский сад маленькую дочку. Он просто живет...



Страна: США
Студия: © DreamWorks
Продолжительность: 01:38:36
Перевод: Русский профессиональный (дубляж)

Файл
Кодек: H.264
Качество: BDRip-AVC 480p iPhone
Видео: 640x480 (852x480) at 23.976 fps, AVC at 1498 kbps
Звук:
1: 48 kHz, AAC 2.0, 192 kbps - Русский профессиональный (дубляж)
1: 48 kHz, AAC 2.0, 192 kbps - Английский

Субтитры: Английские

Sort Name: Croods
XID: Apple:vendor_id:2013-198116
contentID: 668231059
Copyright: © 2013 DreamWorks Animation, L.L.C. All rights reserved.
Screenwriters: Крис Сандерс, Кирк де Микко, Джон Клиз
Producers: Кристин Белсон, Джейн Хартвелл
Director: Kirk De Micco, Chris Sanders
Cast: Николас Кейдж, Эмма Стоун, Райан Рейнольдс, Кэтрин Кинер, Клорис Личмен, Кларк Дьюк, Крис Сандерс
Studio: © DreamWorks
Rating: 3
Long Deion: Землетрясение уничтожило дом доисторической семьи, и теперь Крудсам придётся искать другое пристанище. А вокруг новый и опасный мир! Им на помощь приходит молодой кочевник Малой, передовые взгляды которого наталкиваются на консервативность главы семьи Груга. Но только вместе они смогут выжить и достичь своей цели…
Deion: Землетрясение уничтожило дом доисторической семьи, и теперь Крудсам придётся искать другое пристанище. А вокруг новый и опасный мир! Им на помощь приходит молодой кочевник Малой.
Release Date: 2013-03-22T07:00:00Z
Genre: Kids & Family
Comments: «Если они не эволюционируют, то станут историей»
Artist: Кирк де Микко, Крис Сандерс
Name: Семейка Крудс
General
Complete name : C:CREATE480outThe Croods.2013 (SD).m4v
Format : MPEG-4
Codec ID : M4V
File size : 1.51 GiB
Duration : 1h 38mn
Overall bit rate mode : Variable
Overall bit rate : 2 191 Kbps
Movie name : Семейка Крудс
Performer : Кирк де Микко, Крис Сандерс
Genre : Kids & Family
Recorded date : UTC 2013-03-22 07:00:00
Encoded date : UTC 2014-02-07 07:56:31
Tagged date : UTC 2014-02-07 08:42:47
Copyright : © 2013 DreamWorks Animation, L.L.C. All rights reserved.
Cover : Yes
Comment : «Если они не эволюционируют, то станут историей»
sonm : Croods
desc : Землетрясение уничтожило дом доисторической семьи, и теперь Крудсам придётся искать другое пристанище. А вокруг новый и опасный мир! Им на помощь приходит молодой кочевник Малой.
ldes : Землетрясение уничтожило дом доисторической семьи, и теперь Крудсам придётся искать другое пристанище. А вокруг новый и опасный мир! Им на помощь приходит молодой кочевник Малой, передовые взгляды которого наталкиваются на консервативность главы семьи Груга. Но только вместе они смогут выжить и достичь своей цели…
stik : 9
rtng : 0
cnID : 668231059
xid : Apple:vendor_id:2013-198116
iTunEXTC : mpaa|PG|200|

Video #1
ID : 1
Format : AVC
Format/Info : Advanced Video Codec
Format profile : Baseline@L3.0
Format settings, CABAC : No
Format settings, ReFrames : 2 frames
Codec ID : avc1
Codec ID/Info : Advanced Video Coding
Duration : 1h 38mn
Bit rate : 1 829 Kbps
Maximum bit rate : 8 447 Kbps
Width : 640 pixels
Height : 362 pixels
Display aspect ratio : 2.35:1
Frame rate mode : Constant
Frame rate : 23.976 fps
Color space : YUV
Chroma subsampling : 4:2:0
Bit depth : 8 bits
Scan type : Progressive
Bits/(Pixel*Frame) : 0.329
Stream size : 1.26 GiB (83%)
Title : The Croods _2013_
Writing library : x264 core 140 r2377+40 929f149 tMod [8-bit@4:2:0 X86_64]
Encoding settings : cabac=0 / ref=2 / deblock=1:-2:-2 / analyse=0x1:0x131 / me=umh / subme=7 / psy=1 / fade_compensate=0.10 / psy_rd=1.00:0.00 / mixed_ref=1 / me_range=32 / chroma_me=1 / trellis=2 / 8x8dct=0 / cqm=0 / deadzone=21,11 / fast_pskip=1 / chroma_qp_offset=-2 / threads=12 / lookahead_threads=2 / sliced_threads=0 / nr=0 / decimate=1 / interlaced=0 / bluray_compat=0 / constrained_intra=0 / fgo=0 / bframes=0 / weightp=0 / keyint=250 / keyint_min=23 / scenecut=40 / intra_refresh=0 / rc_lookahead=96 / rc=crf / mbtree=1 / crf=20.5000 / qcomp=0.60 / qpmin=0:0:0 / qpmax=69:69:69 / qpstep=4 / vbv_maxrate=5000 / vbv_bufsize=5000 / crf_max=0.0 / nal_hrd=none / filler=0 / ip_ratio=1.40 / aq=1:1.00 / aq-sensitivity=10.00 / aq-factor=1.00:1.00:1.00 / aq2=0 / aq3=0
Language : English
Encoded date : UTC 2014-02-07 07:56:31
Tagged date : UTC 2014-02-07 07:58:00
Matrix coefficients : BT.709

Video #2
ID : 8
Format : JPEG
Codec ID : jpeg
Duration : 1h 38mn
Bit rate mode : Variable
Bit rate : 1 695 bps
Width : 640 pixels
Height : 272 pixels
Display aspect ratio : 2.35:1
Frame rate mode : Variable
Frame rate : 0.005 fps
Minimum frame rate : 0.002 fps
Maximum frame rate : 0.012 fps
Color space : YUV
Chroma subsampling : 4:2:0
Bit depth : 8 bits
Compression mode : Lossy
Bits/(Pixel*Frame) : 1.947
Stream size : 1.29 MiB (0%)
Language : English
Encoded date : UTC 2014-02-07 08:38:42
Tagged date : UTC 2014-02-07 08:38:42

Audio #1
ID : 2
Format : AAC
Format/Info : Advanced Audio Codec
Format profile : LC
Codec ID : 40
Duration : 1h 38mn
Bit rate mode : Variable
Bit rate : 174 Kbps
Maximum bit rate : 238 Kbps
Channel(s) : 2 channels
Channel positions : Front: L R
Sampling rate : 48.0 KHz
Compression mode : Lossy
Stream size : 122 MiB (8%)
Title : AAC Russian
Language : Russian
Encoded date : UTC 2014-02-07 07:42:22
Tagged date : UTC 2014-02-07 07:58:00

Audio #2
ID : 4
Format : AAC
Format/Info : Advanced Audio Codec
Format profile : LC
Codec ID : 40
Duration : 1h 38mn
Bit rate mode : Variable
Bit rate : 179 Kbps
Maximum bit rate : 244 Kbps
Channel(s) : 2 channels
Channel positions : Front: L R
Sampling rate : 48.0 KHz
Compression mode : Lossy
Stream size : 126 MiB (8%)
Title : AAC Original
Language : English
Encoded date : UTC 2014-02-07 07:52:36
Tagged date : UTC 2014-02-07 07:58:00

Text
ID : 6
Format : Timed Text
Muxing mode : sbtl
Codec ID : tx3g
Duration : 1h 38mn
Bit rate mode : Variable
Bit rate : 58 bps
Stream size : 41.6 KiB (0%)
Title : Subtitle English
Language : English
Encoded date : UTC 2014-02-07 07:58:00
Tagged date : UTC 2014-02-07 07:58:00

Menu
ID : 7
Codec ID : text
Duration : 1h 38mn
Language : English
Encoded date : UTC 2014-02-07 08:00:26
Tagged date : UTC 2014-02-07 08:00:26
Bit rate mode : CBR
x264 [info]: frame I:2033 Avg QP:19.49 size: 41887
x264 [info]: frame P:131647 Avg QP:22.30 size: 7282
x264 [info]: mb I I16..4: 36.8% 0.0% 63.2%
x264 [info]: mb P I16..4: 1.6% 0.0% 2.5% P16..4: 28.3% 10.8% 5.9% 1.5% 0.7% skip:48.7%
x264 [info]: coded y,uvDC,uvAC intra: 57.7% 78.9% 51.3% inter: 17.1% 23.9% 6.4%
x264 [info]: i16 v,h,dc,p: 42% 19% 11% 29%
x264 [info]: i4 v,h,dc,ddl,ddr,vr,hd,vl,hu: 26% 17% 16% 6% 8% 9% 7% 7% 5%
x264 [info]: i8c dc,h,v,p: 47% 17% 24% 11%
x264 [info]: ref P L0: 75.2% 24.8%
x264 [info]: kb/s:1497.62




   Похожие торренты   Торрент   Размер 
В этой теме нет новых непрочитанных сообщений. Семейка Крудс / The Croods (2013) BDRip

1761 | 94

2.19 ГБ

В этой теме нет новых непрочитанных сообщений. Семейка Крудс / The Croods (2013) BDRip-AVC | D, A

154 | 13

3.1 ГБ

В этой теме нет новых непрочитанных сообщений. Семейка Крудс / The Croods (2013) BDRip 1080p | 60 fps | D, A

708 | 76

9.85 ГБ

В этой теме нет новых непрочитанных сообщений. Семейка Крудс / The Croods (2013) HDRip-AVC | D

34 | 4

746.87 МБ

В этой теме нет новых непрочитанных сообщений. Семейка Крудс / The Croods (2013) DVDRip от -=HD-NET=-| КПК | D | Лицензия

204 | 10

441.15 МБ

В этой теме нет новых непрочитанных сообщений. Семейка Крудс / The Croods (2013) HDRip | Трейлер

82 | 4

107.33 МБ

В этой теме нет новых непрочитанных сообщений. OST - Семейка Крудс / The Croods [Original Soundtrack] (2013) MP3

14 | 2

167 МБ




Вы не можете начинать темы
Вы не можете отвечать на сообщения
Вы не можете редактировать свои сообщения
Вы не можете удалять свои сообщения
Вы не можете добавлять вложения

Перейти:  
Для Мосгорсуда, Роскомнадзора и рекламодателей: mosgorsud-torrent[собачка]yandex.ru
 Вход
ppkBB3cker v.2 © 2008-2014 @ PPK
[ Time : 0.025s | 16 Queries | GZIP : Off ]

cron