img image001 image001 image001 image001 image001 image001 image001 image001 image001 image001 image001 image001 image001 image001 image001

Planets Sun Sun Sun
Статистика раздачи
Автор: PriZraK | Размер: 1.14 ГБ | Добавлен: 15 фев 2014
Раздают: 49    Качают: 7
Скачать торрент
Скачать торрент
Описание торрента

СообщениеДобавлено: 15 фев 2014 



История игрушек / Toy Story (1995) BDRip-AVC [480p] | iPhone

Название: История игрушек
Оригинальное название: Toy Story
Год выхода: 1995
Жанр: мультфильм, фэнтези, комедия, приключения, семейный
Режиссер: Джон Лассетер
В ролях: Том Хэнкс, Тим Аллен, Дон Риклз, Джим Варни, Уоллес Шоун, Джон Ратценбергер, Энни Поттс, Джон Моррис, Эрик фон Деттен, Лори Меткаф

О фильме:
Каждый ребенок верит, что когда он оставляет свои игрушки одни, они начинают заниматься своими делами. Этот мультипликационный фильм позволяет убедиться им в своей правоте.
Основная идея фильма - каждая игрушка боится надоесть, стать забытой, замененной другой, так как весь смысл их существования - доставлять счастье своим хозяевам.



Страна: США
Студия: © Pixar
Продолжительность: 01:21:25
Перевод: Русский двухголосый закадровый (Гланц & Казакова), Русский профессиональный (дубляж),

Файл
Кодек: H.264
Качество: BDRip-AVC 480p iPhone
Видео: 640x480 (852x480) at 23.976 fps, AVC at 1496 kbps
Звук:
1: 48 kHz, AAC 2.0, 168 kbps - Русский двухголосый закадровый (Гланц & Казакова)
2: 48 kHz, AAC 2.0, 168 kbps - Русский профессиональный (дубляж)
3: 48 kHz, AAC 2.0, 180 kbps - Английский

Субтитры: Английские

Sort Name: Toy Story
XID: Apple:vendor_id:1995-482
contentID: 188703840
Copyright: © Disney
Screenwriters: Эндрю Стэнтон, Джосс Уидон, Джоэл Коэн
Producers: Бонни Арнольд, Ральф Гуггенхейм, Эд Катмулл
Director: John Lasseter
Cast: Tom Hanks (Woody (voice)), Tim Allen (Buzz Lightyear (voice)), Don Rickles (Mr. Potato Head (voice)), Jim Varney (Slinky Dog (voice)), Wallace Shawn (Rex (voice)), John Ratzenberger (Hamm (voice)), Annie Potts (Bo Peep (voice)), Erik von Detten (Sid (voice)), Laurie Metcalf (Andy's Mom (voice)), R. Lee Ermey (Sergeant (voice)), Sarah Freeman (Hannah (voice)), John Morris (Andy (voice)), Penn Jillette (TV Announcer (voice)), Jack Angel (Shark / Rocky Gibraltar (voice)), Spencer Aste (Additional Voice), Greg Berg (Minesweeper Soldier (voice)), Lisa Bradley (Additional Voice), Kendall Cunningham (Additional Voice), Debi Derryberry (Aliens / Troll / Announcer on Intercom at Pizza Planet (voice)), Cody Dorkin (Additional Voice), Bill Farmer (Additional Voice), Craig Good (Additional Voice), Gregory Grudt (Additional Voice), Danielle Judovits (Additional Voice), Sam Lasseter (Additional Voice), Brittany Levenbrown (Additional Voice), Sherry Lynn (Additional Voice), Scott McAfee (Additional Voice), Mickie McGowan (Sid's Mom (voice)), Ryan O'Donohue (Additional Voice), Jeff Pidgeon (Aliens / Robot / Mr. Spell (voice)), Patrick Pinney (Additional Voice), Philip Proctor (Bowling Announcer / Pizza Planet Guard (voice)), Jan Rabson (Additional Voice), Joe Ranft (Lenny the Binoculars (voice)), Andrew Stanton (Commercial Chorus (voice)), Shane Sweet (Additional Voice)
Studio: © Pixar
Rating: 2
Long Deion: Каждый ребенок верит, что когда он оставляет свои игрушки одни, они начинают заниматься своими делами. Этот мультипликационный фильм позволяет убедиться им в своей правоте.Основная идея фильма — каждая игрушка боится надоесть, стать забытой, замененной другой, так как весь смысл их существования доставлять счастье своим хозяевам.
Deion: Каждый ребенок верит, что когда он оставляет свои игрушки одни, они начинают заниматься своими делами. Этот мультипликационный фильм позволяет убедиться им в своей правоте.
Release Date: 1995-11-22T08:00:00Z
Genre: Kids & Family
Comments: «Proud to be a vegetable»
Artist: Pixar
Name: История игрушек
General
Complete name : C:CREATE480outToy Story.1995 (SD).m4v
Format : MPEG-4
Codec ID : M4V
File size : 1.14 GiB
Duration : 1h 21mn
Overall bit rate mode : Variable
Overall bit rate : 1 996 Kbps
Movie name : История игрушек
Performer : Pixar
Genre : Kids & Family
Recorded date : UTC 1995-11-22 08:00:00
Encoded date : UTC 2014-02-07 10:22:32
Tagged date : UTC 2014-02-07 13:30:30
Copyright : © Disney
Cover : Yes
Comment : «Proud to be a vegetable»
sonm : Toy Story
desc : Каждый ребенок верит, что когда он оставляет свои игрушки одни, они начинают заниматься своими делами. Этот мультипликационный фильм позволяет убедиться им в своей правоте.
ldes : Каждый ребенок верит, что когда он оставляет свои игрушки одни, они начинают заниматься своими делами. Этот мультипликационный фильм позволяет убедиться им в своей правоте.Основная идея фильма — каждая игрушка боится надоесть, стать забытой, замененной другой, так как весь смысл их существования доставлять счастье своим хозяевам.
stik : 9
rtng : 0
cnID : 188703840
xid : Apple:vendor_id:1995-482
iTunEXTC : mpaa|G|100|

Video #1
ID : 1
Format : AVC
Format/Info : Advanced Video Codec
Format profile : Baseline@L3.0
Format settings, CABAC : No
Format settings, ReFrames : 2 frames
Format settings, GOP : N=1
Codec ID : avc1
Codec ID/Info : Advanced Video Coding
Duration : 1h 21mn
Bit rate : 1 500 Kbps
Maximum bit rate : 7 620 Kbps
Width : 640 pixels
Height : 480 pixels
Display aspect ratio : 16:9
Frame rate mode : Constant
Frame rate : 23.976 fps
Color space : YUV
Chroma subsampling : 4:2:0
Bit depth : 8 bits
Scan type : Progressive
Bits/(Pixel*Frame) : 0.204
Stream size : 871 MiB (75%)
Title : Toy Story _1995_
Writing library : x264 core 140 r2377+40 929f149 tMod [8-bit@4:2:0 X86_64]
Encoding settings : cabac=0 / ref=2 / deblock=1:-1:-1 / analyse=0x1:0x131 / me=umh / subme=7 / psy=1 / fade_compensate=0.10 / psy_rd=1.00:0.00 / mixed_ref=1 / me_range=32 / chroma_me=1 / trellis=2 / 8x8dct=0 / cqm=0 / deadzone=21,11 / fast_pskip=1 / chroma_qp_offset=-2 / threads=12 / lookahead_threads=2 / sliced_threads=0 / nr=0 / decimate=1 / interlaced=0 / bluray_compat=0 / constrained_intra=0 / fgo=0 / bframes=0 / weightp=0 / keyint=250 / keyint_min=23 / scenecut=40 / intra_refresh=0 / rc_lookahead=40 / rc=2pass / mbtree=1 / bitrate=1500 / ratetol=1.0 / qcomp=0.60 / qpmin=0:0:0 / qpmax=69:69:69 / qpstep=4 / cplxblur=20.0 / qblur=0.5 / vbv_maxrate=5000 / vbv_bufsize=5000 / nal_hrd=none / filler=0 / ip_ratio=1.40 / aq=1:1.00 / aq-sensitivity=10.00 / aq-factor=1.00:1.00:1.00 / aq2=0 / aq3=0
Language : English
Encoded date : UTC 2014-02-07 10:22:32
Tagged date : UTC 2014-02-07 10:23:03
Matrix coefficients : BT.709

Video #2
ID : 7
Format : JPEG
Codec ID : jpeg
Duration : 1h 21mn
Bit rate mode : Variable
Bit rate : 2 792 bps
Width : 640 pixels
Height : 360 pixels
Display aspect ratio : 16:9
Frame rate mode : Variable
Frame rate : 0.006 fps
Minimum frame rate : 0.003 fps
Maximum frame rate : 0.025 fps
Color space : YUV
Chroma subsampling : 4:2:0
Bit depth : 8 bits
Compression mode : Lossy
Bits/(Pixel*Frame) : 2.020
Stream size : 1.66 MiB (0%)
Language : English
Encoded date : UTC 2014-02-07 13:29:56
Tagged date : UTC 2014-02-07 13:29:56

Audio #1
ID : 2
Format : AAC
Format/Info : Advanced Audio Codec
Format profile : LC
Codec ID : 40
Duration : 1h 21mn
Bit rate mode : Variable
Bit rate : 170 Kbps
Maximum bit rate : 244 Kbps
Channel(s) : 2 channels
Channel positions : Front: L R
Sampling rate : 48.0 KHz
Compression mode : Lossy
Stream size : 98.8 MiB (8%)
Title : MVO _Glanz _ Kazakova_
Language : Russian
Encoded date : UTC 2014-02-07 10:04:32
Tagged date : UTC 2014-02-07 10:23:03

Audio #2
ID : 3
Format : AAC
Format/Info : Advanced Audio Codec
Format profile : LC
Codec ID : 40
Duration : 1h 21mn
Bit rate mode : Variable
Bit rate : 138 Kbps
Maximum bit rate : 168 Kbps
Channel(s) : 2 channels
Channel positions : Front: L R
Sampling rate : 48.0 KHz
Compression mode : Lossy
Stream size : 80.3 MiB (7%)
Title : DUB
Language : Russian
Encoded date : UTC 2014-02-07 10:11:04
Tagged date : UTC 2014-02-07 10:23:03

Audio #3
ID : 4
Format : AAC
Format/Info : Advanced Audio Codec
Format profile : LC
Codec ID : 40
Duration : 1h 21mn
Bit rate mode : Variable
Bit rate : 181 Kbps
Maximum bit rate : 244 Kbps
Channel(s) : 2 channels
Channel positions : Front: L R
Sampling rate : 48.0 KHz
Compression mode : Lossy
Stream size : 106 MiB (9%)
Title : Original
Language : English
Encoded date : UTC 2014-02-07 10:19:17
Tagged date : UTC 2014-02-07 10:23:03

Text
ID : 5
Format : Timed Text
Muxing mode : sbtl
Codec ID : tx3g
Duration : 1h 21mn
Bit rate mode : Variable
Bit rate : 72 bps
Stream size : 43.2 KiB (0%)
Title : Subtitle English
Language : English
Encoded date : UTC 2014-02-07 10:23:03
Tagged date : UTC 2014-02-07 10:23:03

Menu #1
00:00:00.000 : Chapter 1
00:02:02.372 : Chapter 2
00:04:00.574 : Chapter 3
00:06:34.394 : Chapter 4
00:09:19.809 : Chapter 5
00:14:17.815 : Chapter 6
00:20:11.460 : Chapter 7
00:22:18.546 : Chapter 8
00:24:26.382 : Chapter 9
00:26:02.770 : Chapter 10
00:29:30.686 : Chapter 11
00:30:11.143 : Chapter 12
00:35:11.943 : Chapter 13
00:39:27.782 : Chapter 14
00:43:02.121 : Chapter 15
00:43:45.915 : Chapter 16
00:46:28.369 : Chapter 17
00:47:23.007 : Chapter 18
00:49:11.073 : Chapter 19
00:51:11.610 : Chapter 20
00:53:53.147 : Chapter 21
00:56:27.175 : Chapter 22
00:57:18.143 : Chapter 23
01:01:44.784 : Chapter 24
01:02:53.853 : Chapter 25
01:04:52.972 : Chapter 26
01:08:02.704 : Chapter 27
01:13:14.682 : Chapter 28
01:15:44.623 : Chapter 29
01:17:13.003 : Chapter 30

Menu #2
ID : 6
Codec ID : text
Duration : 1h 21mn
Language : English
Encoded date : UTC 2014-02-07 13:29:48
Tagged date : UTC 2014-02-07 13:29:48
Bit rate mode : VBR
x264 [info]: frame I:1926 Avg QP:19.39 size: 53000
x264 [info]: frame P:115208 Avg QP:22.85 size: 7042
x264 [info]: mb I I16..4: 29.0% 0.0% 71.0%
x264 [info]: mb P I16..4: 1.4% 0.0% 2.3% P16..4: 24.7% 9.7% 5.6% 1.6% 0.8% skip:53.9%
x264 [info]: coded y,uvDC,uvAC intra: 62.2% 77.3% 51.3% inter: 15.4% 20.1% 5.3%
x264 [info]: i16 v,h,dc,p: 44% 18% 12% 25%
x264 [info]: i4 v,h,dc,ddl,ddr,vr,hd,vl,hu: 25% 17% 16% 6% 8% 8% 8% 7% 5%
x264 [info]: i8c dc,h,v,p: 49% 18% 24% 10%
x264 [info]: ref P L0: 75.9% 24.1%
x264 [info]: kb/s:1495.6




   Похожие торренты   Торрент   Размер 
В этой теме нет новых непрочитанных сообщений. История игрушек 2 / Toy Story 2 (1999) BDRip-AVC | iPhone

69 | 12

1.31 ГБ

В этой теме нет новых непрочитанных сообщений. История игрушек: Большой побег / Toy Story 3 (2010) BDRip-AVC | iPhone | D

123 | 4

1.33 ГБ

В этой теме нет новых непрочитанных сообщений. История игрушек / Toy Story (1995) BDRip-AVC

148 | 12

744.64 МБ

В этой теме нет новых непрочитанных сообщений. История игрушек / Toy Story (1995) BDRip-AVC от RP4 CHG

20 | 2

701.68 МБ

В этой теме нет новых непрочитанных сообщений. История игрушек / Toy Story (1995) BDRip от HQ-ViDEO

829 | 136

1.67 ГБ

В этой теме нет новых непрочитанных сообщений. История игрушек / Toy Story (1995) BDRip by VIDEODB

4 | 2

2.33 ГБ

В этой теме нет новых непрочитанных сообщений. История игрушек / Toy Story (1995) 1080p BDRip

37 | 3

7.54 ГБ




Вы не можете начинать темы
Вы не можете отвечать на сообщения
Вы не можете редактировать свои сообщения
Вы не можете удалять свои сообщения
Вы не можете добавлять вложения

Перейти:  
Для Мосгорсуда, Роскомнадзора и рекламодателей: mosgorsud-torrent[собачка]yandex.ru
 Вход
ppkBB3cker v.2 © 2008-2014 @ PPK
[ Time : 0.031s | 15 Queries | GZIP : Off ]

Торрент трекер RUTOR.IN, Не можете зайти на rutor.org? Какой новый адрес рутор? Какое зеркало рутор? Не работает rutor.org и зеркала? Тогда наш торрент специально для вас. Rutor.in неофициальное зеркало rutor. В случае если у Вас заблокирован rutor или вдруг Вы не можете на него зайти, то Вы без труда сможете скачать бесплатно и без рекламы последние новинки кино, игр, сериалов и прочего у нас, на Rutor.in. Не нужно использовать прокси, чтобы зайти на рутор, достаточно воспользоваться нашим ресурсом. Все новые фильмы, игры, сериалы, книги и музыка за 2013 и 2014 годы через торрент бесплатно. Скачивайте фильмы в хорошем качестве, игры для пк, xbox, playstation без регистрации. У нас вы найдете новые Зарубежные сериалы и Русские сериалы 2013, 2014, 2015 годов. Оставайтесь с нами, качайте любимые фильмы, игры, сериалы, книги и музыку.