img image001 image001 image001 image001 image001 image001 image001 image001 image001 image001 image001 image001 image001 image001 image001

Planets Sun Sun Sun
Статистика раздачи
Автор: PriZraK | Размер: 1.31 ГБ | Добавлен: 15 фев 2014
Раздают: 69    Качают: 12
Скачать торрент
Скачать торрент
Описание торрента

СообщениеДобавлено: 15 фев 2014 



История игрушек 2 / Toy Story 2 (1999) BDRip-AVC [480p] | iPhone


Название: История игрушек 2
Оригинальное название: Toy Story 2
Год выхода: 1999
Жанр: мультфильм, фэнтези, комедия, приключения, семейный
Режиссер: Джон Лассетер, Эш Браннон, Ли Анкрич
В ролях: Том Хэнкс, Тим Аллен, Джоан Кьюсак, Келси Грэммер, Дон Риклз, Джим Варни, Уоллес Шоун, Джон Ратценбергер, Энни Поттс, Уэйн Найт

О фильме:
Ковбой Вуди и другие игрушки мальчика по имени Энди продолжают жить, радуясь каждому дню. Но неожиданно все меняется, когда Вуди похищает коварный коллекционер. Оказывается, что Вуди - очень ценная игрушка из коллекции, за которую японский музей игрушек готов заплатить огромную сумму. В доме коллекционера он находит своих родственников. В это время игрушки во главе с Баззом Лайтером отправляются на помощь. Вуди узнает о своем знаменитом прошлом, и перед ним встает непростой выбор. Блистать в витрине музея или же вернуться к любимому хозяину?
Deion: Ковбой Вуди и другие игрушки мальчика по имени Энди продолжают жить, радуясь каждому дню. Но неожиданно все меняется, когда Вуди похищает коварный коллекционер. Оказывается, что Вуди - очень ценная игрушка из коллекции.



Страна: США
Студия: © Pixar
Продолжительность: 01:32:55
Перевод: Профессиональный двухголосый закадровый (Гланц & Казакова), Русский профессиональный (дубляж)

Файл
Кодек: H.264
Качество: BDRip-AVC 480p iPhone
Видео: 640x480 (852x480) at 23.976 fps, AVC at 1500 kbps
Звук:
1: 48 kHz, AAC 2.0, 170 kbps - Русский двухголосый закадровый (Гланц & Казакова)
2: 48 kHz, AAC 2.0, 160 kbps - Русский профессиональный (дубляж)
3: 48 kHz, AAC 2.0, 180 kbps - Английский

Субтитры: Английские

Sort Name: Toy Story 2
XID: Apple:vendor_id:1999-405
contentID: 268793231
Copyright: © Disney
Screenwriters: Эндрю Стэнтон, Рита Хсиао, Даг Чемберлен
Producers: Карен Роберт Джексон, Хелен Плоткин, Сара МакАртур
Director: John Lasseter
Cast: Том Хэнкс, Тим Аллен, Джоан Кьюсак, Келси Грэммер, Дон Риклз, Джим Варни, Уоллес Шоун, Джон Ратценбергер, Энни Поттс, Уэйн Найт*Tom Hanks (Woody (voice)), Joan Cusack (Jessie, the Yodeling Cowgirl (voice)), Kelsey Grammer (Stinky Pete the Prospector (voice)), Don Rickles (Mr. Potato Head (voice)), Jim Varney (Slinky Dog (voice)), Wallace Shawn (Rex the Green Dinosaur (voice)), John Ratzenberger (Hamm the Piggy Bank (voice)), Annie Potts (Bo Peep (voice)), Wayne Knight (Al the Toy Collector (voice)), Tim Allen (Buzz Lightyear (voice)), John Morris (Andy (voice)), Laurie Metcalf (Andy's Mom (voice)), Estelle Harris (Mrs. Potato Head (voice)), R. Lee Ermey (Army Sarge (voice)), Jodi Benson (Tour Guide Barbie / Barbie on Backpack (voice))
Studio: © Pixar
Rating: 2
Long Deion: Ковбой Вуди и другие игрушки мальчика по имени Энди продолжают жить, радуясь каждому дню. Но неожиданно все меняется, когда Вуди похищает коварный коллекционер. Оказывается, что Вуди - очень ценная игрушка из коллекции, за которую японский музей игрушек готов заплатить огромную сумму. В доме коллекционера он находит своих родственников. В это время игрушки во главе с Баззом Лайтером отправляются на помощь. Вуди узнает о своем знаменитом прошлом, и перед ним встает непростой выбор. Блистать в витрине музея или же вернуться к любимому хозяину?
Deion: Ковбой Вуди и другие игрушки мальчика по имени Энди продолжают жить, радуясь каждому дню. Но неожиданно все меняется, когда Вуди похищает коварный коллекционер. Оказывается, что Вуди - очень ценная игрушка из коллекции.....
Release Date: 1999-11-24T08:00:00Z
Genre: Kids & Family
Comments: «The Toys are Back in Town»
Artist: Pixar
Name: История игрушек 2
General
Complete name : C:CREATE480outToy Story.2.1999 (SD).m4v
Format : MPEG-4
Codec ID : M4V
File size : 1.31 GiB
Duration : 1h 32mn
Overall bit rate mode : Variable
Overall bit rate : 2 021 Kbps
Movie name : История игрушек 2
Performer : Pixar
Genre : Kids & Family
Recorded date : UTC 1999-11-24 08:00:00
Encoded date : UTC 2014-02-07 19:25:29
Tagged date : UTC 2014-02-07 19:49:02
Copyright : © Disney
Cover : Yes
Comment : «The Toys are Back in Town»
sonm : Toy Story 2
desc : Ковбой Вуди и другие игрушки мальчика по имени Энди продолжают жить, радуясь каждому дню. Но неожиданно все меняется, когда Вуди похищает коварный коллекционер. Оказывается, что Вуди - очень ценная игрушка из коллекции.....
ldes : Ковбой Вуди и другие игрушки мальчика по имени Энди продолжают жить, радуясь каждому дню. Но неожиданно все меняется, когда Вуди похищает коварный коллекционер. Оказывается, что Вуди - очень ценная игрушка из коллекции, за которую японский музей игрушек готов заплатить огромную сумму. В доме коллекционера он находит своих родственников. В это время игрушки во главе с Баззом Лайтером отправляются на помощь. Вуди узнает о своем знаменитом прошлом, и перед ним встает непростой выбор. Блистать в витрине музея или же вернуться к любимому хозяину?
stik : 9
rtng : 0
cnID : 268793231
xid : Apple:vendor_id:1999-405
iTunEXTC : mpaa|G|100|

Video #1
ID : 1
Format : AVC
Format/Info : Advanced Video Codec
Format profile : Baseline@L3.0
Format settings, CABAC : No
Format settings, ReFrames : 2 frames
Format settings, GOP : N=1
Codec ID : avc1
Codec ID/Info : Advanced Video Coding
Duration : 1h 32mn
Bit rate : 1 500 Kbps
Maximum bit rate : 7 220 Kbps
Width : 640 pixels
Height : 480 pixels
Display aspect ratio : 16:9
Frame rate mode : Constant
Frame rate : 23.976 fps
Color space : YUV
Chroma subsampling : 4:2:0
Bit depth : 8 bits
Scan type : Progressive
Bits/(Pixel*Frame) : 0.204
Stream size : 995 MiB (74%)
Title : Toy Story 2 _1999_
Writing library : x264 core 140 r2377+40 929f149 tMod [8-bit@4:2:0 X86_64]
Encoding settings : cabac=0 / ref=2 / deblock=1:-1:-1 / analyse=0x1:0x131 / me=umh / subme=7 / psy=1 / fade_compensate=0.10 / psy_rd=1.00:0.00 / mixed_ref=1 / me_range=32 / chroma_me=1 / trellis=2 / 8x8dct=0 / cqm=0 / deadzone=21,11 / fast_pskip=1 / chroma_qp_offset=-2 / threads=12 / lookahead_threads=2 / sliced_threads=0 / nr=0 / decimate=1 / interlaced=0 / bluray_compat=0 / constrained_intra=0 / fgo=0 / bframes=0 / weightp=0 / keyint=250 / keyint_min=23 / scenecut=40 / intra_refresh=0 / rc_lookahead=40 / rc=2pass / mbtree=1 / bitrate=1500 / ratetol=1.0 / qcomp=0.60 / qpmin=0:0:0 / qpmax=69:69:69 / qpstep=4 / cplxblur=20.0 / qblur=0.5 / vbv_maxrate=5000 / vbv_bufsize=5000 / nal_hrd=none / filler=0 / ip_ratio=1.40 / aq=1:1.00 / aq-sensitivity=10.00 / aq-factor=1.00:1.00:1.00 / aq2=0 / aq3=0
Language : English
Encoded date : UTC 2014-02-07 19:25:29
Tagged date : UTC 2014-02-07 19:26:08
Matrix coefficients : BT.709

Video #2
ID : 7
Format : JPEG
Codec ID : jpeg
Duration : 1h 32mn
Bit rate mode : Variable
Bit rate : 2 801 bps
Width : 640 pixels
Height : 360 pixels
Display aspect ratio : 16:9
Frame rate mode : Variable
Frame rate : 0.006 fps
Minimum frame rate : 0.002 fps
Maximum frame rate : 0.023 fps
Color space : YUV
Chroma subsampling : 4:2:0
Bit depth : 8 bits
Compression mode : Lossy
Bits/(Pixel*Frame) : 2.026
Stream size : 1.95 MiB (0%)
Language : English
Encoded date : UTC 2014-02-07 19:48:57
Tagged date : UTC 2014-02-07 19:48:58

Audio #1
ID : 2
Format : AAC
Format/Info : Advanced Audio Codec
Format profile : LC
Codec ID : 40
Duration : 1h 32mn
Bit rate mode : Variable
Bit rate : 169 Kbps
Maximum bit rate : 247 Kbps
Channel(s) : 2 channels
Channel positions : Front: L R
Sampling rate : 48.0 KHz
Compression mode : Lossy
Stream size : 112 MiB (8%)
Title : DVO _Glanz _ Kazakova_
Language : Russian
Encoded date : UTC 2014-02-07 19:07:52
Tagged date : UTC 2014-02-07 19:26:08

Audio #2
ID : 3
Format : AAC
Format/Info : Advanced Audio Codec
Format profile : LC
Codec ID : 40
Duration : 1h 32mn
Bit rate mode : Variable
Bit rate : 160 Kbps
Maximum bit rate : 215 Kbps
Channel(s) : 2 channels
Channel positions : Front: L R
Sampling rate : 48.0 KHz
Compression mode : Lossy
Stream size : 106 MiB (8%)
Title : DUB
Language : Russian
Encoded date : UTC 2014-02-07 19:13:19
Tagged date : UTC 2014-02-07 19:26:08

Audio #3
ID : 4
Format : AAC
Format/Info : Advanced Audio Codec
Format profile : LC
Codec ID : 40
Duration : 1h 32mn
Bit rate mode : Variable
Bit rate : 181 Kbps
Maximum bit rate : 246 Kbps
Channel(s) : 2 channels
Channel positions : Front: L R
Sampling rate : 48.0 KHz
Compression mode : Lossy
Stream size : 120 MiB (9%)
Title : Original
Language : English
Encoded date : UTC 2014-02-07 19:21:27
Tagged date : UTC 2014-02-07 19:26:08

Text
ID : 5
Format : Timed Text
Muxing mode : sbtl
Codec ID : tx3g
Duration : 1h 31mn
Bit rate mode : Variable
Bit rate : 69 bps
Stream size : 45.9 KiB (0%)
Title : Subtitle English
Language : English
Encoded date : UTC 2014-02-07 19:26:08
Tagged date : UTC 2014-02-07 19:26:08

Menu
ID : 6
Codec ID : text
Duration : 1h 32mn
Language : English
Encoded date : UTC 2014-02-07 19:27:58
Tagged date : UTC 2014-02-07 19:27:58
Bit rate mode : CBR
x264 [info]: frame I:2033 Avg QP:19.49 size: 41887
x264 [info]: frame P:131647 Avg QP:22.30 size: 7282
x264 [info]: mb I I16..4: 36.8% 0.0% 63.2%
x264 [info]: mb P I16..4: 1.6% 0.0% 2.5% P16..4: 28.3% 10.8% 5.9% 1.5% 0.7% skip:48.7%
x264 [info]: coded y,uvDC,uvAC intra: 57.7% 78.9% 51.3% inter: 17.1% 23.9% 6.4%
x264 [info]: i16 v,h,dc,p: 42% 19% 11% 29%
x264 [info]: i4 v,h,dc,ddl,ddr,vr,hd,vl,hu: 26% 17% 16% 6% 8% 9% 7% 7% 5%
x264 [info]: i8c dc,h,v,p: 47% 17% 24% 11%
x264 [info]: ref P L0: 75.2% 24.8%
x264 [info]: kb/s:1497.62




   Похожие торренты   Торрент   Размер 
В этой теме нет новых непрочитанных сообщений. История игрушек / Toy Story (1995) BDRip-AVC | iPhone

49 | 7

1.14 ГБ

В этой теме нет новых непрочитанных сообщений. История игрушек: Большой побег / Toy Story 3 (2010) BDRip-AVC | iPhone | D

123 | 4

1.33 ГБ

В этой теме нет новых непрочитанных сообщений. История Игрушек 2 / Toy Story 2 (1999) BDRip от RP4 CHG

3 | 2

700.9 МБ

В этой теме нет новых непрочитанных сообщений. История игрушек 2 / Toy Story 2 (1999) BDRip-AVC

76 | 4

744.4 МБ

В этой теме нет новых непрочитанных сообщений. История Игрушек 2 / Toy Story 2 (1999) BDRip 1080p

9 | 4

6.85 ГБ

В этой теме нет новых непрочитанных сообщений. История игрушек 2 / Toy Story 2 (1999) BDRip 1080p | 3D

54 | 3

5.21 ГБ

В этой теме нет новых непрочитанных сообщений. История игрушек 2 / Toy Story 2 (1999) BDRip by VIDEODB

3 | 3

2.16 ГБ




Вы не можете начинать темы
Вы не можете отвечать на сообщения
Вы не можете редактировать свои сообщения
Вы не можете удалять свои сообщения
Вы не можете добавлять вложения

Перейти:  
Для Мосгорсуда, Роскомнадзора и рекламодателей: mosgorsud-torrent[собачка]yandex.ru
 Вход
ppkBB3cker v.2 © 2008-2014 @ PPK
[ Time : 0.037s | 17 Queries | GZIP : Off ]

Торрент трекер RUTOR.IN, Не можете зайти на rutor.org? Какой новый адрес рутор? Какое зеркало рутор? Не работает rutor.org и зеркала? Тогда наш торрент специально для вас. Rutor.in неофициальное зеркало rutor. В случае если у Вас заблокирован rutor или вдруг Вы не можете на него зайти, то Вы без труда сможете скачать бесплатно и без рекламы последние новинки кино, игр, сериалов и прочего у нас, на Rutor.in. Не нужно использовать прокси, чтобы зайти на рутор, достаточно воспользоваться нашим ресурсом. Все новые фильмы, игры, сериалы, книги и музыка за 2013 и 2014 годы через торрент бесплатно. Скачивайте фильмы в хорошем качестве, игры для пк, xbox, playstation без регистрации. У нас вы найдете новые Зарубежные сериалы и Русские сериалы 2013, 2014, 2015 годов. Оставайтесь с нами, качайте любимые фильмы, игры, сериалы, книги и музыку.
cron