img image001 image001 image001 image001 image001 image001 image001 image001 image001 image001 image001 image001 image001 image001 image001

Planets Sun Sun Sun
Статистика раздачи
Автор: PriZraK | Размер: 1.33 ГБ | Добавлен: 15 фев 2014
Раздают: 123    Качают: 4
Скачать торрент
Скачать торрент
Описание торрента

СообщениеДобавлено: 15 фев 2014 



История игрушек: Большой побег / Toy Story 3 (2010) BDRip-AVC [480p] | iPhone


Название: История игрушек: Большой побег
Оригинальное название: Toy Story 3
Год выхода: 2010
Жанр: мультфильм, фэнтези, комедия, приключения, семейный
Режиссер: Джон Лассетер, Эш Браннон, Ли Анкрич
В ролях: Том Хэнкс, Тим Аллен, Джоан Кьюсак, Нед Битти, Дон Риклз, Майкл Китон, Уоллес Шоун, Джон Ратценбергер, Эстель Харрис, Джон Моррис, Александр Баргман, Станислав Концевич, Юлия Рудина, Сергей Паршин, Артур Ваха

О фильме:
Энди почти 18 лет, ему остаётся 3 дня до отправки в колледж, в то время как его игрушки, в том числе Вуди и Базз Лайтер, гадают о своём будущем.
Куда забросит их судьба? На чердак, на свалку или, может быть, в детский сад "Солнышко"?
События развиваются в самом неожиданном направлении, и приключения полюбившихся героев продолжаются!



Страна: США
Студия: © Pixar
Продолжительность: 01:42:33
Перевод: Русский дублированный перевод

Файл
Кодек: H.264
Качество: BDRip-AVC 480p iPhone
Видео: 640x480 (852x480) at 23.976 fps, AVC at 1494 kbps
Звук:
1: 48 kHz, AAC 2.0, 170 kbps - Русский дублированный перевод
2: 48 kHz, AAC 2.0, 180 kbps - Английский

Субтитры: отсутствуют

Sort Name: Toy Story 3
XID: Apple:vendor_id:2010-258328
contentID: 393469956
Copyright: © Disney
Screenwriters: Майкл Арндт, Джон Лассетер, Эндрю Стэнтон
Producers: Дарла К. Андерсон, Николь Паради Гриндл, Джон Лассетер
Director: Ли Анкрич
Cast: Том Хэнкс, Тим Аллен, Джоан Кьюсак, Нед Битти, Дон Риклз, Майкл Китон, Уоллес Шоун, Джон Ратценбергер, Эстель Харрис, Джон Моррис, Александр Баргман, Станислав Концевич, Юлия Рудина, Сергей Паршин, Артур Ваха
Studio: © Pixar
Rating: 2
Long Deion: Энди почти 18 лет, ему остаётся 3 дня до отправки в колледж, в то время как его игрушки, в том числе Вуди и Базз Лайтер, гадают о своём будущем. Куда забросит их судьба? На чердак, на свалку или, может быть, в детский сад "Солнышко"? События развиваются в самом неожиданном направлении, и приключения полюбившихся героев продолжаются!
Deion: Энди почти 18 лет, ему остаётся 3 дня до отправки в колледж, в то время как его игрушки, в том числе Вуди и Базз Лайтер, гадают о своём будущем. Куда забросит их судьба? На чердак, на свалку или, может быть, в детский сад "Солнышко"? События развиваю
Release Date: 2010-06-18T07:00:00Z
Genre: Kids & Family
Comments: «The Breakout Comedy Of The Summer»
Artist: Pixar
Name: История игрушек: Большой побег
General
Complete name : C:CREATE480outToy Story.3.2010 (SD).m4v
Format : MPEG-4
Codec ID : M4V
File size : 1.33 GiB
Duration : 1h 43mn
Overall bit rate mode : Variable
Overall bit rate : 1 845 Kbps
Movie name : История игрушек: Большой побег
Performer : Pixar
Genre : Kids & Family
Recorded date : UTC 2010-06-18 07:00:00
Encoded date : UTC 2014-02-08 18:28:36
Tagged date : UTC 2014-02-08 18:40:23
Copyright : © Disney
Cover : Yes
Comment : «The Breakout Comedy Of The Summer»
sonm : Toy Story 3
desc : Энди почти 18 лет, ему остаётся 3 дня до отправки в колледж, в то время как его игрушки, в том числе Вуди и Базз Лайтер, гадают о своём будущем. Куда забросит их судьба? На чердак, на свалку или, может быть, в детский сад "Солнышко"? События развиваю
ldes : Энди почти 18 лет, ему остаётся 3 дня до отправки в колледж, в то время как его игрушки, в том числе Вуди и Базз Лайтер, гадают о своём будущем. Куда забросит их судьба? На чердак, на свалку или, может быть, в детский сад "Солнышко"? События развиваются в самом неожиданном направлении, и приключения полюбившихся героев продолжаются!
stik : 9
rtng : 0
cnID : 393469956
xid : Apple:vendor_id:2010-258328
iTunEXTC : mpaa|G|100|

Video #1
ID : 1
Format : AVC
Format/Info : Advanced Video Codec
Format profile : Baseline@L3.0
Format settings, CABAC : No
Format settings, ReFrames : 2 frames
Format settings, GOP : N=1
Codec ID : avc1
Codec ID/Info : Advanced Video Coding
Duration : 1h 42mn
Bit rate : 1 500 Kbps
Maximum bit rate : 8 367 Kbps
Width : 640 pixels
Height : 480 pixels
Display aspect ratio : 16:9
Frame rate mode : Constant
Frame rate : 23.976 fps
Color space : YUV
Chroma subsampling : 4:2:0
Bit depth : 8 bits
Scan type : Progressive
Bits/(Pixel*Frame) : 0.204
Stream size : 1.07 GiB (81%)
Title : Toy Story 3 _2010_
Writing library : x264 core 140 r2377+40 929f149 tMod [8-bit@4:2:0 X86_64]
Encoding settings : cabac=0 / ref=2 / deblock=1:-1:-1 / analyse=0x1:0x131 / me=umh / subme=7 / psy=1 / fade_compensate=0.10 / psy_rd=1.00:0.00 / mixed_ref=1 / me_range=32 / chroma_me=1 / trellis=2 / 8x8dct=0 / cqm=0 / deadzone=21,11 / fast_pskip=1 / chroma_qp_offset=-2 / threads=12 / lookahead_threads=2 / sliced_threads=0 / nr=0 / decimate=1 / interlaced=0 / bluray_compat=0 / constrained_intra=0 / fgo=0 / bframes=0 / weightp=0 / keyint=250 / keyint_min=23 / scenecut=40 / intra_refresh=0 / rc_lookahead=40 / rc=2pass / mbtree=1 / bitrate=1500 / ratetol=1.0 / qcomp=0.60 / qpmin=0:0:0 / qpmax=69:69:69 / qpstep=4 / cplxblur=20.0 / qblur=0.5 / vbv_maxrate=5000 / vbv_bufsize=5000 / nal_hrd=none / filler=0 / ip_ratio=1.40 / aq=1:1.00 / aq-sensitivity=10.00 / aq-factor=1.00:1.00:1.00 / aq2=0 / aq3=0
Language : English
Encoded date : UTC 2014-02-08 18:28:36
Tagged date : UTC 2014-02-08 18:29:01
Matrix coefficients : BT.709

Video #2
ID : 5
Format : JPEG
Codec ID : jpeg
Duration : 1h 43mn
Bit rate mode : Variable
Bit rate : 2 215 bps
Width : 640 pixels
Height : 360 pixels
Display aspect ratio : 16:9
Frame rate mode : Variable
Frame rate : 0.005 fps
Minimum frame rate : 0.002 fps
Maximum frame rate : 0.020 fps
Color space : YUV
Chroma subsampling : 4:2:0
Bit depth : 8 bits
Compression mode : Lossy
Bits/(Pixel*Frame) : 1.923
Stream size : 1.74 MiB (0%)
Language : English
Encoded date : UTC 2014-02-08 18:40:08
Tagged date : UTC 2014-02-08 18:40:08

Audio #1
ID : 2
Format : AAC
Format/Info : Advanced Audio Codec
Format profile : LC
Codec ID : 40
Duration : 1h 43mn
Bit rate mode : Variable
Bit rate : 167 Kbps
Maximum bit rate : 233 Kbps
Channel(s) : 2 channels
Channel positions : Front: L R
Sampling rate : 48.0 KHz
Compression mode : Lossy
Stream size : 123 MiB (9%)
Title : DUB
Language : Russian
Encoded date : UTC 2014-02-08 18:20:24
Tagged date : UTC 2014-02-08 18:29:01

Audio #2
ID : 3
Format : AAC
Format/Info : Advanced Audio Codec
Format profile : LC
Codec ID : 40
Duration : 1h 42mn
Bit rate mode : Variable
Bit rate : 180 Kbps
Maximum bit rate : 238 Kbps
Channel(s) : 2 channels
Channel positions : Front: L R
Sampling rate : 48.0 KHz
Compression mode : Lossy
Stream size : 132 MiB (10%)
Title : Original
Language : English
Encoded date : UTC 2014-02-08 18:26:22
Tagged date : UTC 2014-02-08 18:29:01

Menu
ID : 4
Codec ID : text
Duration : 1h 43mn
Language : English
Encoded date : UTC 2014-02-08 18:30:01
Tagged date : UTC 2014-02-08 18:30:01
Bit rate mode : CBR
x264 [info]: frame I:2853 Avg QP:20.39 size: 30170
x264 [info]: frame P:144680 Avg QP:23.02 size: 7347
x264 [info]: mb I I16..4: 45.9% 0.0% 54.1%
x264 [info]: mb P I16..4: 1.5% 0.0% 2.3% P16..4: 33.5% 12.7% 6.5% 1.5% 0.7% skip:41.3%
x264 [info]: coded y,uvDC,uvAC intra: 54.1% 76.1% 43.9% inter: 19.4% 23.7% 5.1%
x264 [info]: i16 v,h,dc,p: 49% 16% 10% 25%
x264 [info]: i4 v,h,dc,ddl,ddr,vr,hd,vl,hu: 25% 16% 16% 7% 8% 9% 7% 7% 5%
x264 [info]: i8c dc,h,v,p: 54% 16% 21% 9%
x264 [info]: ref P L0: 77.0% 23.0%
x264 [info]: kb/s:1493.94




   Похожие торренты   Торрент   Размер 
В этой теме нет новых непрочитанных сообщений. История игрушек: Большой побег / Toy Story 3 (2010) BDRip-AVC

85 | 5

744.99 МБ

В этой теме нет новых непрочитанных сообщений. История игрушек: Большой побег / Toy Story 3 (2010) BDRip 1080p

67 | 8

4.37 ГБ

В этой теме нет новых непрочитанных сообщений. История игрушек: Большой побег / Toy Story 3 (2010) BDRip 720p | 60 FPS

177 | 9

4.78 ГБ

В этой теме нет новых непрочитанных сообщений. История игрушек: Большой побег / Toy Story 3 (2010) BDRip (1080р)

32 | 6

8.23 ГБ

В этой теме нет новых непрочитанных сообщений. История игрушек: Большой побег / Toy Story 3 (2010) BDRip-AVC от Leonardo and Scarabey | D

1276 | 50

1.46 ГБ

В этой теме нет новых непрочитанных сообщений. История игрушек: Большой побег / Toy Story 3 (2010) BDRip 1080p | 3D-Video

11 | 6

12.8 ГБ

В этой теме нет новых непрочитанных сообщений. История игрушек: Большой побег / Toy Story 3 (2010) BDRip [720p] от HQ-ViDEO

21 | 12

4.65 ГБ




Вы не можете начинать темы
Вы не можете отвечать на сообщения
Вы не можете редактировать свои сообщения
Вы не можете удалять свои сообщения
Вы не можете добавлять вложения

Перейти:  
Для Мосгорсуда, Роскомнадзора и рекламодателей: mosgorsud-torrent[собачка]yandex.ru
 Вход
ppkBB3cker v.2 © 2008-2014 @ PPK
[ Time : 0.045s | 18 Queries | GZIP : Off ]

Торрент трекер RUTOR.IN, Не можете зайти на rutor.org? Какой новый адрес рутор? Какое зеркало рутор? Не работает rutor.org и зеркала? Тогда наш торрент специально для вас. Rutor.in неофициальное зеркало rutor. В случае если у Вас заблокирован rutor или вдруг Вы не можете на него зайти, то Вы без труда сможете скачать бесплатно и без рекламы последние новинки кино, игр, сериалов и прочего у нас, на Rutor.in. Не нужно использовать прокси, чтобы зайти на рутор, достаточно воспользоваться нашим ресурсом. Все новые фильмы, игры, сериалы, книги и музыка за 2013 и 2014 годы через торрент бесплатно. Скачивайте фильмы в хорошем качестве, игры для пк, xbox, playstation без регистрации. У нас вы найдете новые Зарубежные сериалы и Русские сериалы 2013, 2014, 2015 годов. Оставайтесь с нами, качайте любимые фильмы, игры, сериалы, книги и музыку.
cron