img image001 image001 image001 image001 image001 image001 image001 image001 image001 image001 image001 image001 image001 image001 image001

Planets Sun Sun Sun
Статистика раздачи
Автор: PriZraK | Размер: 744.44 МБ | Добавлен: 15 фев 2014
Раздают: 108    Качают: 16
Скачать торрент
Скачать торрент
Описание торрента

СообщениеДобавлено: 15 фев 2014 


Страна: CCCP
Производство: Киевнаучфильм

Жанр: мультфильм, мюзикл, семейный
Год выпуска: 1985
Продолжительность: 01:08:27

Перевод: не требуется
Оригинальная аудиодорожка: русский
Cубтитры: нет

Режиссер: Давид Черкасский

Роли озвучивали:
Георгий Кишко, Семен Фарада, Мария Миронова, Зиновий Гердт, Людмила Иванова, Людмила Ларина, Зоя Пыльнова, Всеволод Абдулов, Евгений Паперный, Ю. Врублевский...


Злой разбойник Бармалей, именем которого давно пугали детей, сидит в тюрьме под охраной Гиппопотама. Друзья-пираты помогают своему главарю сбежать, но Гиппопотам тайком проникает на их корабль и старается выведать планы злодеев. В это время тётушка Варвара, сварливая сестра доброго доктора Айболита, уходит от брата, заявляя, что ненавидит зверей, которых любит и лечит доктор. По воле случая Варвара попадает на пиратскую шхуну. Шхуна причаливает к берегам Африки, где разбойники устраивают для зверей представление «Муха-Цокотуха» (партию Мухи исполняет Варвара), а затем раздают отравленное угощение, и все звери заболевают. Гиппопотам, который всё видел, звонит в Ленинград Айболиту…





Исходник: DVD5 R5
Тип релиза: DVDRip
Контейнер: AVI

Видео: 704x528 (4:3), 25 fps, XviD ~ 1383 kbps avg, 0.149 bit/pixel
Аудио: 48 kHz, MP3 2.0, 128 kbps

Раздача от:
Общее
Полное имя : Doktor.Aibolit.1985.DVDRip-745_[New-team]_by_AVP_Studio.avi
Формат : AVI
Формат/Информация : Audio Video Interleave
Размер файла : 744 Мбайт
Продолжительность : 1 ч. 8 м.
Общий поток : 1520 Кбит/сек
Программа кодирования : VirtualDubModRus 1.5.10.2 (build 2542/release)
Библиотека кодирования : VirtualDubMod build 2542/release

Видео
Идентификатор : 0
Формат : MPEG-4 Visual
Профиль формата : Advanced Simple@L5
Параметр BVOP формата : 1
Параметр QPel формата : Нет
Параметр GMC формата : Без точки перехода
Параметр матрицы формата : Выборочная
Идентификатор кодека : XVID
Идентификатор кодека/Подсказка : XviD
Продолжительность : 1 ч. 8 м.
Битрейт : 1383 Кбит/сек
Ширина : 704 пикселя
Высота : 528 пикселей
Соотношение сторон : 4:3
Частота кадров : 25,000 кадров/сек
Цветовое пространство : YUV
Субдискретизация насыщенности : 4:2:0
Битовая глубина : 8 бит
Тип развёртки : Прогрессивная
Метод сжатия : С потерями
Бит/(Пиксели*Кадры) : 0.149
Размер потока : 677 Мбайт (91%)
Библиотека кодирования : XviD 73

Аудио
Идентификатор : 1
Формат : MPEG Audio
Версия формата : Version 1
Профиль формата : Layer 3
Идентификатор кодека : 55
Идентификатор кодека/Подсказка : MP3
Продолжительность : 1 ч. 8 м.
Вид битрейта : Постоянный
Битрейт : 128 Кбит/сек
Каналы : 2 канала
Частота : 48,0 КГц
Метод сжатия : С потерями
Размер потока : 62,7 Мбайт (8%)
Выравнивание : Соединение по промежуткам
Продолжительность промежутка : 40 мс. (1,00 видеокадр)
Время предзагрузки промежутка : 504 мс.
Библиотека кодирования : LAME3.99r
Настройки программы : -m s -V 4 -q 2 -lowpass 17 -b 128





   Похожие торренты   Торрент   Размер 
В этой теме нет новых непрочитанных сообщений. Доктор Айболит (1985) DVDRip от New-Team

245 | 19

1.19 ГБ

В этой теме нет новых непрочитанных сообщений. Доктор Айболит (1985) DVDRip-AVC от New-Team

315 | 15

1.09 ГБ

В этой теме нет новых непрочитанных сообщений. Доктор Айболит (1985) DVDRip

60 | 6

1002.23 МБ

В этой теме нет новых непрочитанных сообщений. Доктор Айболит (1938) DVDRip

31 | 7

699.2 МБ

В этой теме нет новых непрочитанных сообщений. Мелодия - Корней Чуковский - Доктор Айболит (1956) MP3

32 | 4

115.91 МБ

В этой теме нет новых непрочитанных сообщений. Доктор и дьяволы / The Doctor and the Devils (1985) DVDRip от Files-x

1 | 2

1.15 ГБ

В этой теме нет новых непрочитанных сообщений. Айболит-66 (1966) DVDRip | Реставрация

543 | 26

1.37 ГБ




Вы не можете начинать темы
Вы не можете отвечать на сообщения
Вы не можете редактировать свои сообщения
Вы не можете удалять свои сообщения
Вы не можете добавлять вложения

Перейти:  
Для Мосгорсуда, Роскомнадзора и рекламодателей: mosgorsud-torrent[собачка]yandex.ru
 Вход
ppkBB3cker v.2 © 2008-2014 @ PPK
[ Time : 0.032s | 15 Queries | GZIP : On ]

Торрент трекер RUTOR.IN, Не можете зайти на rutor.org? Какой новый адрес рутор? Какое зеркало рутор? Не работает rutor.org и зеркала? Тогда наш торрент специально для вас. Rutor.in неофициальное зеркало rutor. В случае если у Вас заблокирован rutor или вдруг Вы не можете на него зайти, то Вы без труда сможете скачать бесплатно и без рекламы последние новинки кино, игр, сериалов и прочего у нас, на Rutor.in. Не нужно использовать прокси, чтобы зайти на рутор, достаточно воспользоваться нашим ресурсом. Все новые фильмы, игры, сериалы, книги и музыка за 2013 и 2014 годы через торрент бесплатно. Скачивайте фильмы в хорошем качестве, игры для пк, xbox, playstation без регистрации. У нас вы найдете новые Зарубежные сериалы и Русские сериалы 2013, 2014, 2015 годов. Оставайтесь с нами, качайте любимые фильмы, игры, сериалы, книги и музыку.