img image001 image001 image001 image001 image001 image001 image001 image001 image001 image001 image001 image001 image001 image001 image001

Planets Sun Sun Sun
Статистика раздачи
Автор: PriZraK | Размер: 15.89 ГБ | Добавлен: 15 фев 2014
Раздают: 50    Качают: 31
Скачать торрент
Скачать торрент
Описание торрента

СообщениеДобавлено: 15 фев 2014 



Оригинальное название: The Simpsons
Русское название: Симпсоны
Год выпуска: 2011
Страна: США
Жанр: Приключения, комедия, фантастика
Продолжительность: 20 минут (серия)
Перевод: 1)Профессиональный (многоголосый, закадровый) 2х2
2)Профессиональный (многоголосый, закадровый) VO-Production
3 )Профессиональный (многоголосый, закадровый) QTV

Субтитры: есть (русские, Нотабенойд)
Производство: FOX
Режиссер: Мэтт Гроунинг / Matt Groening
Роли озвучивали: Дэн Кастелланета, Джули Кавнер, Нэнси Картрайт, Ярдли Смит, Гарри Ширер, Хэнк Азария, Памела Хейден, Тресс МакНилл, Карл Видерготт, Мэгги Росвэлл и др.
Описание: Симпсоны живут в вымышленном городе Спрингфилд, со своим обществом и историей. Гомер - отец семейства, который дает плохие советы и работает инспектором безопасности на атомной электростанции; Мардж - любящая мать и жена, старается сохранить спокойствие в семье; Барт - 10 летний хулиган; Лиза - философский 8-летний ребенок; и Мэгги - младенец, который общается посредством соски.
Качество: WEB-DL 720p
Формат: MKV
Видео кодек: h264
Аудио кодек: AC3
Видео: h264 1280x720, 23.976 fps, ~4Mbps, 0.174 bit/pixel
Аудио:
русская 2x2: Dolby AC3 48000Hz stereo 192Kbps,
русская VO-Production: Dolby AC3 48000Hz stereo 192Kbps,
украинская QTV (начиная со 2 серии): Dolby AC3 48000Hz stereo 192Kbps,
английская: Dolby AC3 48000Hz 6ch 384Kbps
Примечание:
Скриншоты:


01. The Falcon and the D'ohman
02. Bart Stops to Smell the Roosevelts
03. Treehouse of Horror XXII
04. Replaceable You
05. The Food Wife
06. The Book Job
07. The Man in the Blue Flannel Pants
08. The Ten-Per-Cent Solution
09. Holidays of Future Passed
10. Politically Inept, with Homer Simpson
11. The D'oh-cial Network
12. Moe Goe
13. The Daughter Also Rises
14. At Long Last Leave
15. Exit Through the Kwik-E-Mart
16. How I Wet Your Mother
17. Them, Robot
18. Beware My Cheating Bart
19. A Totally Fun Thing That Bart Will Never Do Again
20. The Spy Who Learned Me
21. Ned 'n Edna's Blend
22. Lisa Goes Gaga

[code]General
Unique ID : 229578505656167168683656436800539109750 (0xACB7363CA8CD165C8A0C1107416CA976)
Complete name : X:HDThe Simpsons. 23 season (WEB-DL l )�1. The Falcon and the D'ohman.mkv
Format : Matroska
Format version : Version 1
File size : 735 MiB
Duration : 21mn 51s
Overall bit rate : 4 704 Kbps
Movie name : The Simpsons (2011) S23E01 - The Falcon and the D'Ohman - @ - Gater -
Encoded date : UTC 2013-04-15 18:10:33
Writing application : mkvmerge v2.3.0 ('Freak U') built on Sep 8 2008 18:32:16
Writing library : libebml v0.7.7 + libmatroska v0.8.1Video
ID : 1
Format : AVC
Format/Info : Advanced Video Codec
Format profile : High@L3.1
Format settings, CABAC : No
Format settings, ReFrames : 2 frames
Codec ID : V_MPEG4/ISO/AVC
Duration : 21mn 51s
Bit rate : 3 842 Kbps
Width : 1 280 pixels
Height : 720 pixels
Display aspect ratio : 16:9
Frame rate mode : Constant
Frame rate : 23.976 fps
Color space : YUV
Chroma subsampling : 4:2:0
Bit depth : 8 bits
Scan type : Progressive
Bits/(Pixel*Frame) : 0.174
Stream size : 601 MiB (82%)
Title : The Simpsons (2011) S23E01 - The Falcon and the D'Ohman - @ - Gater -
Language : English
Default : Yes
Forced : No
Color primaries : BT.709
Transfer characteristics : BT.709
Matrix coefficients : BT.709Audio #1
ID : 2
Format : AC-3
Format/Info : Audio Coding 3
Mode extension : CM (complete main)
Format settings, Endianness : Big
Codec ID : A_AC3
Duration : 21mn 51s
Bit rate mode : Constant
Bit rate : 192 Kbps
Channel(s) : 2 channels
Channel positions : Front: L R
Sampling rate : 48.0 KHz
Bit depth : 16 bits
Compression mode : Lossy
Stream size : 30.0 MiB (4%)
Title : 2x2
Language : Russian
Default : Yes
Forced : NoAudio #2
ID : 3
Format : AC-3
Format/Info : Audio Coding 3
Mode extension : CM (complete main)
Format settings, Endianness : Big
Codec ID : A_AC3
Duration : 21mn 51s
Bit rate mode : Constant
Bit rate : 192 Kbps
Channel(s) : 2 channels
Channel positions : Front: L R
Sampling rate : 48.0 KHz
Bit depth : 16 bits
Compression mode : Lossy
Stream size : 30.0 MiB (4%)
Title : VO-Production
Language : Russian
Default : No
Forced : NoAudio #3
ID : 4
Format : AC-3
Format/Info : Audio Coding 3
Mode extension : CM (complete main)
Format settings, Endianness : Big
Codec ID : A_AC3
Duration : 21mn 51s
Bit rate mode : Constant
Bit rate : 384 Kbps
Channel(s) : 6 channels
Channel positions : Front: L C R, Side: L R, LFE
Sampling rate : 48.0 KHz
Bit depth : 16 bits
Compression mode : Lossy
Stream size : 60.0 MiB (8%)
Title : Original
Language : English
Default : No
Forced : NoText #1
ID : 5
Format : UTF-8
Codec ID : S_TEXT/UTF8
Codec ID/Info : UTF-8 Plain Text
Title : Notabenoid
Language : Russian
Default : Yes
Forced : NoText #2
ID : 6
Format : UTF-8
Codec ID : S_TEXT/UTF8
Codec ID/Info : UTF-8 Plain Text
Title : Original
Language : English
Default : No
Forced : No
[/b][/b]



   Похожие торренты   Торрент   Размер 
В этой теме нет новых непрочитанных сообщений. Симпсоны / The Simpsons [S25] (2013-2014) WEB-DLRip | 2х2, VO-production

259 | 49

7.9 ГБ

В этой теме нет новых непрочитанных сообщений. Симпсоны / The Simpsons [S24] (2012-2013) WEB-DLRip | 2х2, VO-production

132 | 35

7.89 ГБ

В этой теме нет новых непрочитанных сообщений. Симпсоны / The Simpsons [S24] (2013) WEB-DL 720p | VO-production

15 | 8

15.6 ГБ

В этой теме нет новых непрочитанных сообщений. Симпсоны / The Simpsons [S25] (2013-2014) WEB-DL 720p | 2х2, Nice Media, VO-production

199 | 35

15.42 ГБ

В этой теме нет новых непрочитанных сообщений. Симпсоны / The Simpsons [S22] (2011) WEB-DLRip | VO-Production

45 | 13

4.12 ГБ

В этой теме нет новых непрочитанных сообщений. Симпсоны / The Simpsons [28x01-04 из 22] (2016) WEB-DLRip | VO-production

0 | 0

1004.75 МБ

В этой теме нет новых непрочитанных сообщений. Симпсоны / The Simpsons [28x01-04 из 22] (2016) WEB-DLRip | VO-production

0 | 0

1.23 ГБ




Вы не можете начинать темы
Вы не можете отвечать на сообщения
Вы не можете редактировать свои сообщения
Вы не можете удалять свои сообщения
Вы не можете добавлять вложения

Перейти:  
Для Мосгорсуда, Роскомнадзора и рекламодателей: mosgorsud-torrent[собачка]yandex.ru
 Вход
ppkBB3cker v.2 © 2008-2014 @ PPK
[ Time : 0.943s | 15 Queries | GZIP : Off ]

cron