img image001 image001 image001 image001 image001 image001 image001 image001 image001 image001 image001 image001 image001 image001 image001

Planets Sun Sun Sun
Статистика раздачи
Автор: Nickolas3434 | Размер: 2.44 ГБ | Добавлен: 17 фев 2014
Раздают: 81    Качают: 32
Скачать торрент
Скачать торрент
Описание торрента

СообщениеДобавлено: 17 фев 2014 

Год выпуска: 2009
Страна: США
Жанр: Мультфильм, фэнтези, комедия, семейный
Продолжительность: 01:29:53
Перевод 1: Дублированный - Русский
Перевод 2: Дублированный - Украинский

Режиссер: Фил Лорд], Кристофер Миллер
Продюссер: Пэм Мэрсден, Лидия Боттегони, Крис Джун.
Сценарий: Фил Лорд, Кристофер Миллер, Роб Гринберг
Композитор: Марк Мазерсбо
Студия: Sony Pictures Animation

В ролях: Билл Хейдер (Bill Hader) - Flint Lockwood, озвучка, Анна Фэрис (Anna Faris) - Sam Sparks, озвучка, Джеймс Каан (James Caan) - Tim Lockwood, озвучка, Энди Сэмберг (Andy Samberg) - «Baby» Brent, озвучка, Брюс Кэмпбелл (Bruce Campbell) - Mayor Shelbourne, озвучка, Мистер Ти (Mr. T) - Earl Devereaux, озвучка, Бобби Дж. Томпсон (Bobb'e J. Thompson) - Cal Devereaux, озвучка, Бенджамин Брэтт (Benjamin Bratt) - Manny, озвучка, Нил Патрик Харрис (Neil Patrick Harris) - Steve, озвучка, Эл Рокер (Al Roker) - Patrick Patrickson, озвучка, Лорен Грэм (Lauren Graham) - Fran Lockwood, озвучка, Уилл Форте (Will Forte) - Joe Towne, озвучка, Макс Ньювёрт (Max Neuwirth) - Young Flint, озвучка, Питер Сирагуса (Peter Siragusa) - Rufus, озвучка, Анджела Шелтон (Angela Shelton) - Regina Devereaux, озвучка, Нил Флинн (Neil Flynn) - Weather News Network Producer, озвучка, Лиз Каковски (Liz Cackowski) - Flint's Teacher, озвучка, Изабелла Акрес (Isabella Acres) - озвучка, Лори Алан (Lori Alan) - озвучка

Описание:
Главный герой мультфильма — странный ученый Флинт Локвуд, который всегда хотел изобрести что-то такое, что сделает его родной городок счастливым. И вот, у него получилось! Еды теперь хватает всем, и она просто падает с неба, создавая новые пейзажи вокруг: можно любоваться закатом с живописных холмов из фруктового желе. Но иногда вкусные осадки в виде фрикаделек могут превратиться в настоящий торнадо из аппетитных, но уже опасных спагетти! Гениальному ученому и его друзьям предстоит исправить положение дел в сытом городке.

Качество: BDRip 1080p
Контейнер: MKV
Видео кодек: x265
Аудио кодек: AC3
Видео: x265, 1920x810 pix., 2524 Kbps, 23.976 fps
Аудио 1: АС3, 48.0 KHz, 640 Kbps, 6 channels, 16 bits /Русский/
Аудио 2: АС3, 48.0 KHz, 640 Kbps, 6 channels, 16 bits /Украинский/
Навигация по главам: Есть
Субтитры: Отсутствуют


Внимание!
Рип в фомате HEVC, в настоящее время не поддерживается аппаратными проигрывателями.
Для корректного воспроизведения может потребоваться обновление ПО.
Владельцам несовместимого железа просьба не беспокоить, на трекере есть альтернативные релизы.

General
Unique ID : 239596696984050377529476301420104409165 (0xB440A5345534F323B56FD3DB289A604D)
Complete name : G:TORRENTCloudy.With.A.Chance.Of.Meatballs.1-2.[BDRip 1080p HEVC]Cloudy.Part1.[BDRip 1080p HEVC].(2009).F-HD.mkv
Format : Matroska
Format version : Version 2
File size : 2.44 GiB
Duration : 1h 29mn
Overall bit rate : 3 881 Kbps
Encoded date : UTC 2014-02-15 18:46:59
Writing application : mkvmerge v6.5.0 ('Isn't she lovely') built on Oct 20 2013 12:50:05
Writing library : libebml v1.3.0 + libmatroska v1.4.1

Video
ID : 1
Format : HEVC
Format/Info : High Efficiency Video Coding
Codec ID : V_MPEGH/ISO/HEVC
Bit rate : 2 524 Kbps
Width : 1 920 pixels
Height : 816 pixels
Display aspect ratio : 2.35:1
Frame rate mode : Variable
Title : FREEISLAND
Language : English
Default : Yes
Forced : No

Audio #1
ID : 2
Format : AC-3
Format/Info : Audio Coding 3
Mode extension : CM (complete main)
Format settings, Endianness : Big
Codec ID : A_AC3
Duration : 1h 29mn
Bit rate mode : Constant
Bit rate : 640 Kbps
Channel count : 6 channels
Channel positions : Front: L C R, Side: L R, LFE
Sampling rate : 48.0 KHz
Bit depth : 16 bits
Compression mode : Lossy
Stream size : 411 MiB (16%)
Title : Русский
Language : Russian
Default : Yes
Forced : No

Audio #2
ID : 3
Format : AC-3
Format/Info : Audio Coding 3
Mode extension : CM (complete main)
Format settings, Endianness : Big
Codec ID : A_AC3
Duration : 1h 29mn
Bit rate mode : Constant
Bit rate : 640 Kbps
Channel count : 6 channels
Channel positions : Front: L C R, Side: L R, LFE
Sampling rate : 48.0 KHz
Bit depth : 16 bits
Compression mode : Lossy
Stream size : 411 MiB (16%)
Title : Украинский
Language : Ukrainian
Default : No
Forced : No

Menu
00:00:00.000 : en:00:00:00.000
00:04:47.621 : en:00:04:47.621
00:08:56.578 : en:00:08:56.578
00:14:33.164 : en:00:14:33.164
00:20:30.229 : en:00:20:30.229
00:24:25.589 : en:00:24:25.589
00:30:43.175 : en:00:30:43.175
00:36:29.604 : en:00:36:29.604
00:42:50.109 : en:00:42:50.109
00:46:36.794 : en:00:46:36.794
00:52:43.827 : en:00:52:43.827
00:55:07.429 : en:00:55:07.429
01:00:42.764 : en:01:00:42.764
01:05:43.398 : en:01:05:43.398
01:13:03.754 : en:01:13:03.754
01:17:45.369 : en:01:17:45.369


т.к. по неизвестной мне причине mediainfo неверно указывает размер кадра, прикладываю скриншот о свойствах видео из MPC






Релиз от:



   Похожие торренты   Торрент   Размер 
В этой теме нет новых непрочитанных сообщений. Облачно, возможны осадки в виде фрикаделек / Cloudy with a Chance of Meatballs (2009) BDRip 1080p

31 | 14

4.37 ГБ

В этой теме нет новых непрочитанных сообщений. Облачно, возможны осадки в виде фрикаделек / Cloudy with a Chance of Meatballs (2009) BDRip 1080p от NOLIMITS-TEAM | 3D-Video

3 | 2

4.37 ГБ

В этой теме нет новых непрочитанных сообщений. Облачно, возможны осадки в виде фрикаделек / Cloudy with a Chance of Meatballs (2009) BDRip от HQ-ViDEO | D

774 | 45

1.46 ГБ

В этой теме нет новых непрочитанных сообщений. Облачно, возможны осадки в виде фрикаделек / Cloudy with a Chance of Meatballs (2009) BDRip от HQCLUB

158 | 26

2.02 ГБ

В этой теме нет новых непрочитанных сообщений. Облачно, возможны осадки в виде фрикаделек / Cloudy with a Chance of Meatballs (2009) BDRip от HELLYWOOD

60 | 114

2.02 ГБ

В этой теме нет новых непрочитанных сообщений. Облачно, возможны осадки в виде фрикаделек / Cloudy with a Chance of Meatballs (2009) PC

34 | 4

2.17 ГБ

В этой теме нет новых непрочитанных сообщений. Cloudy with a Chance of Meatballs / Облачно, возможны осадки в виде фрикаделек (2009) PC

35 | 2

1.09 ГБ




Вы не можете начинать темы
Вы не можете отвечать на сообщения
Вы не можете редактировать свои сообщения
Вы не можете удалять свои сообщения
Вы не можете добавлять вложения

Перейти:  
Для Мосгорсуда, Роскомнадзора и рекламодателей: mosgorsud-torrent[собачка]yandex.ru
 Вход
ppkBB3cker v.2 © 2008-2014 @ PPK
[ Time : 0.062s | 16 Queries | GZIP : Off ]

Торрент трекер RUTOR.IN, Не можете зайти на rutor.org? Какой новый адрес рутор? Какое зеркало рутор? Не работает rutor.org и зеркала? Тогда наш торрент специально для вас. Rutor.in неофициальное зеркало rutor. В случае если у Вас заблокирован rutor или вдруг Вы не можете на него зайти, то Вы без труда сможете скачать бесплатно и без рекламы последние новинки кино, игр, сериалов и прочего у нас, на Rutor.in. Не нужно использовать прокси, чтобы зайти на рутор, достаточно воспользоваться нашим ресурсом. Все новые фильмы, игры, сериалы, книги и музыка за 2013 и 2014 годы через торрент бесплатно. Скачивайте фильмы в хорошем качестве, игры для пк, xbox, playstation без регистрации. У нас вы найдете новые Зарубежные сериалы и Русские сериалы 2013, 2014, 2015 годов. Оставайтесь с нами, качайте любимые фильмы, игры, сериалы, книги и музыку.