img image001 image001 image001 image001 image001 image001 image001 image001 image001 image001 image001 image001 image001 image001 image001

Planets Sun Sun Sun
Статистика раздачи
Автор: Nickolas3434 | Размер: 744.73 МБ | Добавлен: 17 фев 2014
Раздают: 426    Качают: 10
Скачать торрент
Скачать торрент
Описание торрента

СообщениеДобавлено: 17 фев 2014 

Рождественское приключение / Abominable Christmas

Страна: США
Жанр: мультфильм, семейный
Продолжительность: 00:43:37
Год выпуска: 2012
Перевод: Профессиональный (дублированный) Канал "Дисней"
Русские субтитры: нет

Режиссёр: Чад Ван Де Кир / Chad Van De Keere

Роли озвучивали: Изабелла Акрес, Дрейк Белл, Эмилио Эстевес, Нолан Гоулд, Мэттью Лиллард, Рэй Лиотта, Джейн Линч, Эриель Винтер

Роли дублировали: Людмила Иванова, Михаил Тихонов, Жанна Никонова, Владимир Рыбальченко, Людмила Ильина



Описание: В Рождество нет ничего невозможного! Особенно, если ты... снежный человек! Веселая семейка мохнатых созданий живет высоко в горах и собирается спуститься в город, где люди готовятся к празднованию самого сказочного праздника в году! Они не сомневаются, что жители примут пушистых гостей радушно, но как на самом деле развернутся события?
Доп. информация:
- Запись звука с эфира (канал "Дисней") и синхронизация с DVD - xfiles.
- За исходный DVD5 спасибо trytryagain@BitHQ
Семпл: Semple.avi
Качество: DVDRip
Формат: AVI
Видео: 720x400 (1.80:1), 23.976 fps, XviD build 73 ~2249 kbps avg, 0.33 bit/pixel
Аудио : 48 kHz, MPEG Layer 3, 2 ch, ~128.00 kbps avg
Субтитры: отсутствуют
Код:
Общее
Полное имя                               : D:Рипы выкладка [Deadmauvlad]Рипы готовыеAbominable.Christmas.2012.DVDRip.Deadmauvlad.avi
Формат                                   : AVI
Формат/Информация                        : Audio Video Interleave
Размер файла                             : 745 Мбайт
Продолжительность                        : 43 м.
Общий поток                              : 2387 Кбит/сек
Название фильма                          : Abominable.Christmas.2012.DVDRip.Deadmauvlad
Режиссёр                                 : Deadmauvlad
Жанр                                     : Genre_00+
Программа кодирования                    : VirtualDubMod 1.5.10.3 | www.virtualdub-fr.org || (build 2550/release)
Формат оригинала/Имя                     : Мультфильм
Правообладатель                          : Goldenshara

Видео
Идентификатор                            : 0
Формат                                   : MPEG-4 Visual
Профиль формата                          : Advanced Simple@L5
Параметр BVOP формата                    : 1
Параметр QPel формата                    : Да
Параметр GMC формата                     : Без точки перехода
Параметр матрицы формата                 : Выборочная
Идентификатор кодека                     : XVID
Идентификатор кодека/Подсказка           : XviD
Продолжительность                        : 43 м.
Битрейт                                  : 2249 Кбит/сек
Ширина                                   : 720 пикселей
Высота                                   : 400 пикселей
Соотношение сторон                       : 16:9
Частота кадров                           : 23,976 кадра/сек
Цветовое пространство                    : YUV
Субдискретизация насыщенности            : 4:2:0
Битовая глубина                          : 8 бит
Тип развёртки                            : Прогрессивная
Метод сжатия                             : С потерями
Бит/(Пиксели*Кадры)                      : 0.326
Размер потока                            : 702 Мбайт (94%)
Библиотека кодирования                   : XviD 73

Аудио
Идентификатор                            : 1
Формат                                   : MPEG Audio
Версия формата                           : Version 1
Профиль формата                          : Layer 3
Идентификатор кодека                     : 55
Идентификатор кодека/Подсказка           : MP3
Продолжительность                        : 43 м.
Вид битрейта                             : Постоянный
Битрейт                                  : 128 Кбит/сек
Каналы                                   : 2 канала
Частота                                  : 48,0 КГц
Метод сжатия                             : С потерями
Размер потока                            : 39,9 Мбайт (5%)
Выравнивание                             : Соединение по промежуткам
Продолжительность промежутка             : 42  мс. (1,00 видеокадр)
Время предзагрузки промежутка            : 504  мс.
Библиотека кодирования                   : LAME3.99r
Настройки программы                      : -m s -V 4 -q 2 -lowpass 17 -b 128








   Похожие торренты   Торрент   Размер 
В этой теме нет новых непрочитанных сообщений. Рождественское приключение / Abominable Christmas (2012) DVDRip 720 от Deadmauvlad | D

208 | 73

1.45 ГБ

В этой теме нет новых непрочитанных сообщений. Рождественское приключение / Abominable Christmas (2012) DVDRip-AVC от Deadmauvlad | D

57 | 2

697.44 МБ

В этой теме нет новых непрочитанных сообщений. Табалуга и Лео: Рождественское приключение / Tabaluga and Leo: Christmas adventure (2003) DVDRip от Gold Cartoon KINOREAKTOR (Sheikn)

4 | 3

1.11 ГБ

В этой теме нет новых непрочитанных сообщений. Рождественское приключение Бетховена / Beethoven's Christmas Adventure (2011) WEB-DLRip

153 | 4

1.46 ГБ

В этой теме нет новых непрочитанных сообщений. Рождественское ограбление / Christmas Caper (2007) DVDRip

42 | 7

693.31 МБ

В этой теме нет новых непрочитанных сообщений. Великий Руперт / Рождественское Желание / The Great Rupert / A Christmas Wish (1950) DVDRip l цветная реставрированная версия

2 | 3

1.36 ГБ

В этой теме нет новых непрочитанных сообщений. Это, блин, рождественское чудо / A Merry Friggin' Christmas (2014) HDRip | L1

289 | 15

745.87 МБ




Вы не можете начинать темы
Вы не можете отвечать на сообщения
Вы не можете редактировать свои сообщения
Вы не можете удалять свои сообщения
Вы не можете добавлять вложения

Перейти:  
Для Мосгорсуда, Роскомнадзора и рекламодателей: mosgorsud-torrent[собачка]yandex.ru
 Вход
ppkBB3cker v.2 © 2008-2014 @ PPK
[ Time : 0.044s | 15 Queries | GZIP : Off ]

Торрент трекер RUTOR.IN, Не можете зайти на rutor.org? Какой новый адрес рутор? Какое зеркало рутор? Не работает rutor.org и зеркала? Тогда наш торрент специально для вас. Rutor.in неофициальное зеркало rutor. В случае если у Вас заблокирован rutor или вдруг Вы не можете на него зайти, то Вы без труда сможете скачать бесплатно и без рекламы последние новинки кино, игр, сериалов и прочего у нас, на Rutor.in. Не нужно использовать прокси, чтобы зайти на рутор, достаточно воспользоваться нашим ресурсом. Все новые фильмы, игры, сериалы, книги и музыка за 2013 и 2014 годы через торрент бесплатно. Скачивайте фильмы в хорошем качестве, игры для пк, xbox, playstation без регистрации. У нас вы найдете новые Зарубежные сериалы и Русские сериалы 2013, 2014, 2015 годов. Оставайтесь с нами, качайте любимые фильмы, игры, сериалы, книги и музыку.