img image001 image001 image001 image001 image001 image001 image001 image001 image001 image001 image001 image001 image001 image001 image001

Planets Sun Sun Sun
Статистика раздачи
Автор: Nickolas3434 | Размер: 697.44 МБ | Добавлен: 16 фев 2014
Раздают: 57    Качают: 2
Скачать торрент
Скачать торрент
Описание торрента

СообщениеДобавлено: 16 фев 2014 

Рождественское приключение / Abominable Christmas

Страна: США
Жанр: мультфильм, семейный
Продолжительность: 00:43:37
Год выпуска: 2012
Перевод: Профессиональный (дублированный) Канал "Дисней"
Русские субтитры: нет

Режиссёр: Чад Ван Де Кир / Chad Van De Keere

Роли озвучивали: Изабелла Акрес, Дрейк Белл, Эмилио Эстевес, Нолан Гоулд, Мэттью Лиллард, Рэй Лиотта, Джейн Линч, Эриель Винтер

Роли дублировали: Людмила Иванова, Михаил Тихонов, Жанна Никонова, Владимир Рыбальченко, Людмила Ильина



Описание: В Рождество нет ничего невозможного! Особенно, если ты... снежный человек! Веселая семейка мохнатых созданий живет высоко в горах и собирается спуститься в город, где люди готовятся к празднованию самого сказочного праздника в году! Они не сомневаются, что жители примут пушистых гостей радушно, но как на самом деле развернутся события?
Доп. информация:
- Запись звука с эфира (канал "Дисней") и синхронизация с DVD - xfiles.
- За исходный DVD5 спасибо trytryagain@BitHQ
Качество: DVDRip-AVC
Формат: MKV
Видео: AVC at 2106 Кбит/сек,1024 x 576 (1.778) at 23.976 fps
Аудио : AC-3 at 128 Кбит/сек,2 канала, 48,0 КГц
Субтитры: отсутствуют
Код:
Общее
Уникальный идентификатор                 : 191437253597268617073445200057064072570 (0x90057952A6F9F497B51A6288F66DA57A)
Полное имя                               : D:Рипы выкладка [Deadmauvlad]Рипы готовыеAbominable.Christmas.2012.DVDRip-AVC.Deadmauvlad.Goldenshara.mkv
Формат                                   : Matroska
Версия формата                           : Version 4 / Version 2
Размер файла                             : 697 Мбайт
Продолжительность                        : 43 м.
Общий поток                              : 2235 Кбит/сек
Дата кодирования                         : UTC 2014-02-16 05:36:33
Программа кодирования                    : mkvmerge v6.5.0 ('Isn't she lovely') built on Oct 20 2013 12:50:05
Библиотека кодирования                   : libebml v1.3.0 + libmatroska v1.4.1

Видео
Идентификатор                            : 1
Формат                                   : AVC
Формат/Информация                        : Advanced Video Codec
Профиль формата                          : High@L4.1
Параметр CABAC формата                   : Да
Параметр ReFrames формата                : 4 кадра
Идентификатор кодека                     : V_MPEG4/ISO/AVC
Продолжительность                        : 43 м.
Битрейт                                  : 2106 Кбит/сек
Ширина                                   : 1024 пикселя
Высота                                   : 576 пикселей
Соотношение сторон                       : 16:9
Режим частоты кадров                     : Постоянный
Частота кадров                           : 23,976 кадра/сек
Цветовое пространство                    : YUV
Субдискретизация насыщенности            : 4:2:0
Битовая глубина                          : 8 бит
Тип развёртки                            : Прогрессивная
Бит/(Пиксели*Кадры)                      : 0.149
Размер потока                            : 644 Мбайт (92%)
Заголовок                                : Abominable.Christmas.2012.DVDRip-AVC.Deadmauvlad.Goldenshara
Библиотека кодирования                   : x264 core 130 r2273 b3065e6
Настройки программы                      : cabac=1 / ref=5 / deblock=1:-1:-1 / analyse=0x3:0x113 / me=umh / subme=8 / psy=1 / psy_rd=1.00:0.15 / mixed_ref=1 / me_range=16 / chroma_me=1 / trellis=1 / 8x8dct=1 / cqm=0 / deadzone=21,11 / fast_pskip=1 / chroma_qp_offset=-3 / threads=3 / lookahead_threads=1 / sliced_threads=0 / nr=0 / decimate=1 / interlaced=0 / bluray_compat=1 / constrained_intra=0 / bframes=3 / b_pyramid=1 / b_adapt=2 / b_bias=0 / direct=3 / weightb=1 / open_gop=0 / weightp=1 / keyint=250 / keyint_min=1 / scenecut=40 / intra_refresh=0 / rc_lookahead=50 / rc=2pass / mbtree=1 / bitrate=2106 / ratetol=1.0 / qcomp=0.60 / qpmin=0 / qpmax=69 / qpstep=4 / cplxblur=20.0 / qblur=0.5 / ip_ratio=1.40 / aq=1:1.00
Default                                  : Да
Forced                                   : Нет
Основные цвета                           : BT.709
Характеристики трансфера                 : BT.709
Коэффициенты матрицы                     : BT.709

Аудио
Идентификатор                            : 2
Формат                                   : AC-3
Формат/Информация                        : Audio Coding 3
Расширение режима                        : CM (complete main)
Параметр Endianness формата              : Big
Идентификатор кодека                     : A_AC3
Продолжительность                        : 43 м.
Вид битрейта                             : Постоянный
Битрейт                                  : 128 Кбит/сек
Каналы                                   : 2 канала
Расположение каналов                     : Front: L R
Частота                                  : 48,0 КГц
Битовая глубина                          : 16 бит
Метод сжатия                             : С потерями
Размер потока                            : 39,9 Мбайт (6%)
Заголовок                                : Профессиональный (дублированный) Канал "Дисней"
Язык                                     : Russian
Default                                  : Да
Forced                                   : Нет
x264 [info]: frame I:712 Avg QP: 9.98 size:110823
x264 [info]: frame P:18589 Avg QP:13.95 size: 21459
x264 [info]: frame B:43460 Avg QP:18.50 size: 4767
x264 [info]: consecutive B-frames: 3.1% 6.0% 23.1% 67.8%
x264 [info]: mb I I16..4: 18.6% 0.0% 81.4%
x264 [info]: mb P I16..4: 10.1% 0.0% 0.0% P16..4: 53.3% 0.0% 0.0% 0.0% 0.0% skip:36.7%
x264 [info]: mb B I16..4: 1.5% 0.0% 0.0% B16..8: 18.3% 0.0% 0.0% direct: 8.2% skip:72.0% L0:28.1% L1:37.3% BI:34.6%
x264 [info]: final ratefactor: 15.47
x264 [info]: direct mvs spatial:99.6% temporal:0.4%
x264 [info]: coded y,uvDC,uvAC intra: 79.2% 70.5% 53.1% inter: 16.4% 12.1% 2.6%
x264 [info]: i16 v,h,dc,p: 35% 27% 25% 12%
x264 [info]: i4 v,h,dc,ddl,ddr,vr,hd,vl,hu: 23% 25% 13% 3% 9% 5% 7% 6% 9%
x264 [info]: i8c dc,h,v,p: 44% 25% 24% 6%
x264 [info]: Weighted P-Frames: Y:1.5% UV:1.1%
x264 [info]: kb/s:2093.38

x264 [total]: encoded 62761 frames, 33.48 fps, 2093.38 kb/s












   Похожие торренты   Торрент   Размер 
В этой теме нет новых непрочитанных сообщений. Рождественское приключение / Abominable Christmas (2012) DVDRip от Deadmauvlad | D

426 | 10

744.73 МБ

В этой теме нет новых непрочитанных сообщений. Рождественское приключение / Abominable Christmas (2012) DVDRip 720 от Deadmauvlad | D

170 | 60

1.45 ГБ

В этой теме нет новых непрочитанных сообщений. Табалуга и Лео: Рождественское приключение / Tabaluga and Leo: Christmas adventure (2003) DVDRip от Gold Cartoon KINOREAKTOR (Sheikn)

4 | 3

1.11 ГБ

В этой теме нет новых непрочитанных сообщений. Рождественское приключение Бетховена / Beethoven's Christmas Adventure (2011) WEB-DL 1080p | D

11 | 2

7.93 ГБ

В этой теме нет новых непрочитанных сообщений. Рождественское приключение Бетховена / Beethoven's Christmas Adventure (2011) WEB-DLRip

153 | 4

1.46 ГБ

В этой теме нет новых непрочитанных сообщений. Рождественское желание / Wish For Christmas (2016) DVDRip | L

50 | 1

1.37 ГБ

В этой теме нет новых непрочитанных сообщений. Рождественское ограбление / Christmas Caper (2007) DVDRip

56 | 6

693.31 МБ




Вы не можете начинать темы
Вы не можете отвечать на сообщения
Вы не можете редактировать свои сообщения
Вы не можете удалять свои сообщения
Вы не можете добавлять вложения

Перейти:  
Для Мосгорсуда, Роскомнадзора и рекламодателей: mosgorsud-torrent[собачка]yandex.ru
 Вход
ppkBB3cker v.2 © 2008-2014 @ PPK
[ Time : 0.039s | 16 Queries | GZIP : Off ]

cron