img image001 image001 image001 image001 image001 image001 image001 image001 image001 image001 image001 image001 image001 image001 image001

Planets Sun Sun Sun
Статистика раздачи
Автор: Nickolas3434 | Размер: 1.59 ГБ | Добавлен: 17 фев 2014
Раздают: 57    Качают: 33
Скачать торрент
Скачать торрент
Описание торрента

СообщениеДобавлено: 17 фев 2014 

Информация о фильме
Название: Алоис Небель и его призраки
Оригинальное название: Alois Nebel
Год выхода: 2011
Жанр: мультфильм, драма
Режиссер: Томас Лунак
В ролях: Мирослав Кробот, Мари Людвикова, Карел Роден, Леош Нога, Алоис Швеглик, Тереза Воришкова, Ян Седал, Милослав Марсалек, Иржи Штребл, Марек Дэниэл

О фильме: Алоис Небель — скромный диспетчер на забытом Богом полустанке где-то на чешской границе. Вся его жизнь состоит из кормления кошки и ожидания поездов: прибытие — отправление… И уж точно никого не интересуют галлюцинации Алоиса Небеля. А между тем, они ужаснули бы любого психиатра. Однажды Алоис и герой его видений встречаются прямо на перроне…



Выпущено: Negativ
Продолжительность: 01:24:42
Перевод: Многоголосый закадровый (лицензия)

Файл
Кодек: x264
Качество: BDRip (источник: Blu-ray Disc)
Видео: 1280x720 (16:9), 23.976 fps, 2040 kbps
Аудио #1: AC-3, 2 ch, 192 kbps (Rus)
Аудио #2: AC-3, 6 ch, 448 kbps (Cze)
Субтитры: Чешские, Английские
Скачать: сэмпл

Скриншоты

Общее
Уникальный идентификатор : 220646163998803816252045052802516127250 (0xA5FEE7CAA67657D1868A72CA998C0E12)
Полное имя : Alois.Nebel.2011.BDRip.720p.Rus.Cze.mkv
Формат : Matroska
Версия формата : Version 2
Размер файла : 1,59 Гбайт
Продолжительность : 1 ч. 24 м.
Общий поток : 2680 Кбит/сек
Название фильма : Алоис Небель и его призраки / Alois Nebel (2011)
Дата кодирования : UTC 2014-02-16 15:54:27
Программа кодирования : mkvmerge v5.8.0 ('No Sleep / Pillow') built on Sep 2 2012 15:37:04
Библиотека кодирования : libebml v1.2.3 + libmatroska v1.3.0

Видео
Идентификатор : 1
Формат : AVC
Формат/Информация : Advanced Video Codec
Профиль формата : High@L4.1
Параметр CABAC формата : Да
Параметр ReFrames формата : 9 кадров
Идентификатор кодека : V_MPEG4/ISO/AVC
Продолжительность : 1 ч. 24 м.
Битрейт : 2038 Кбит/сек
Ширина : 1280 пикселей
Высота : 720 пикселей
Соотношение сторон : 16:9
Режим частоты кадров : Постоянный
Частота кадров : 23,976 кадра/сек
Цветовое пространство : YUV
Субдискретизация насыщенности : 4:2:0
Битовая глубина : 8 бит
Тип развёртки : Прогрессивная
Бит/(Пиксели*Кадры) : 0.092
Размер потока : 1,18 Гбайт (74%)
Заголовок : Release by AlexKa
Библиотека кодирования : x264 core 142 r2389 956c8d8
Настройки программы : cabac=1 / ref=9 / deblock=1:0:0 / analyse=0x3:0x133 / me=umh / subme=9 / psy=1 / psy_rd=1.00:0.00 / mixed_ref=1 / me_range=32 / chroma_me=1 / trellis=2 / 8x8dct=1 / cqm=0 / deadzone=21,11 / fast_pskip=0 / chroma_qp_offset=-2 / threads=12 / lookahead_threads=2 / sliced_threads=0 / nr=0 / decimate=1 / interlaced=0 / bluray_compat=0 / constrained_intra=0 / bframes=9 / b_pyramid=2 / b_adapt=2 / b_bias=0 / direct=3 / weightb=1 / open_gop=0 / weightp=2 / keyint=240 / keyint_min=23 / scenecut=40 / intra_refresh=0 / rc=2pass / mbtree=0 / bitrate=2038 / ratetol=1.0 / qcomp=0.60 / qpmin=0 / qpmax=69 / qpstep=4 / cplxblur=20.0 / qblur=0.5 / ip_ratio=1.40 / pb_ratio=1.30 / aq=1:1.00
Язык : Czech

Аудио #1
Идентификатор : 2
Формат : AC-3
Формат/Информация : Audio Coding 3
Расширение режима : CM (complete main)
Параметр Endianness формата : Big
Идентификатор кодека : A_AC3
Продолжительность : 1 ч. 24 м.
Вид битрейта : Постоянный
Битрейт : 192 Кбит/сек
Каналы : 2 канала
Расположение каналов : Front: L R
Частота : 48,0 КГц
Битовая глубина : 16 бит
Метод сжатия : С потерями
Размер потока : 116 Мбайт (7%)
Заголовок : Rus
Язык : Russian

Аудио #2
Идентификатор : 3
Формат : AC-3
Формат/Информация : Audio Coding 3
Расширение режима : CM (complete main)
Параметр Endianness формата : Big
Идентификатор кодека : A_AC3
Продолжительность : 1 ч. 24 м.
Вид битрейта : Постоянный
Битрейт : 448 Кбит/сек
Каналы : 6 каналов
Расположение каналов : Front: L C R, Side: L R, LFE
Частота : 48,0 КГц
Битовая глубина : 16 бит
Метод сжатия : С потерями
Размер потока : 271 Мбайт (17%)
Заголовок : Cze
Язык : Czech

Текст #1
Идентификатор : 4
Формат : UTF-8
Идентификатор кодека : S_TEXT/UTF8
Идентификатор кодека/Информация : UTF-8 Plain Text
Заголовок : Cze
Язык : Czech

Текст #2
Идентификатор : 5
Формат : UTF-8
Идентификатор кодека : S_TEXT/UTF8
Идентификатор кодека/Информация : UTF-8 Plain Text
Заголовок : Eng
Язык : English

Меню
00:00:00.000 : :Chapter 01
00:05:21.321 : :Chapter 02
00:16:06.965 : :Chapter 03
00:21:14.772 : :Chapter 04
00:31:19.376 : :Chapter 05
00:37:12.730 : :Chapter 06
00:43:49.626 : :Chapter 07
00:50:08.005 : :Chapter 08
00:55:03.300 : :Chapter 09
01:01:56.713 : :Chapter 10
01:10:47.743 : :Chapter 11
01:18:33.707 : :Chapter 12
01:24:42.033 : :Chapter 13



   Похожие торренты   Торрент   Размер 
В этой теме нет новых непрочитанных сообщений. Алоис Небель и его призраки / Alois Nebel (2011) BDRip 720p от CINEMANIA | P

12 | 2

5.04 ГБ

В этой теме нет новых непрочитанных сообщений. Алоис Небель и его призраки / Alois Nebel (2011) DVDRip-AVC от Temperest

20 | 3

1.07 ГБ

В этой теме нет новых непрочитанных сообщений. Призраки Салема / A Haunting in Salem (2011) BDRip 720p

2 | 1

4.63 ГБ

В этой теме нет новых непрочитанных сообщений. Призраки / Ghosted (2011) BDRip-AVC от ExKinoRay

2 | 3

2.42 ГБ

В этой теме нет новых непрочитанных сообщений. Призраки / Ghosted (2011) BDRip от Rulya74 | P2

3 | 2

722.55 МБ

В этой теме нет новых непрочитанных сообщений. Призраки / Ghosted (2011) BDRip от R.G.RealMT

7 | 2

1.36 ГБ

В этой теме нет новых непрочитанных сообщений. Призраки / Угасшие / The Fades [S01] (2011) BDRip-AVC от R.G.AVI | AVC

13 | 5

6.87 ГБ




Вы не можете начинать темы
Вы не можете отвечать на сообщения
Вы не можете редактировать свои сообщения
Вы не можете удалять свои сообщения
Вы не можете добавлять вложения

Перейти:  
Для Мосгорсуда, Роскомнадзора и рекламодателей: mosgorsud-torrent[собачка]yandex.ru
 Вход
ppkBB3cker v.2 © 2008-2014 @ PPK
[ Time : 0.113s | 15 Queries | GZIP : Off ]

Торрент трекер RUTOR.IN, Не можете зайти на rutor.org? Какой новый адрес рутор? Какое зеркало рутор? Не работает rutor.org и зеркала? Тогда наш торрент специально для вас. Rutor.in неофициальное зеркало rutor. В случае если у Вас заблокирован rutor или вдруг Вы не можете на него зайти, то Вы без труда сможете скачать бесплатно и без рекламы последние новинки кино, игр, сериалов и прочего у нас, на Rutor.in. Не нужно использовать прокси, чтобы зайти на рутор, достаточно воспользоваться нашим ресурсом. Все новые фильмы, игры, сериалы, книги и музыка за 2013 и 2014 годы через торрент бесплатно. Скачивайте фильмы в хорошем качестве, игры для пк, xbox, playstation без регистрации. У нас вы найдете новые Зарубежные сериалы и Русские сериалы 2013, 2014, 2015 годов. Оставайтесь с нами, качайте любимые фильмы, игры, сериалы, книги и музыку.