img image001 image001 image001 image001 image001 image001 image001 image001 image001 image001 image001 image001 image001 image001 image001

Planets Sun Sun Sun
Статистика раздачи
Автор: Nickolas3434 | Размер: 2.68 ГБ | Добавлен: 18 фев 2014
Раздают: 473    Качают: 12
Скачать торрент
Скачать торрент
Описание торрента

СообщениеДобавлено: 18 фев 2014 

Страна: США
Студия: Pixar Animation Studios, Walt Disney Pictures
Жанр: мультфильм, фантастика, мелодрама, приключения, семейный
Год выпуска: 2008
Продолжительность: 01:37:25
Перевод: Профессиональный (дублированный)
Cубтитры: Русские, Английские (.srt)
Оригинальная аудиодорожка: Английская


Режиссер: Эндрю Стэнтон / Andrew Stanton
Роли озвучивали: Бен Бертт, Элисса Найт, Джефф Гарлин, Фред Уиллард, Джон Ратценбергер, Кэти Нэджими, Сигурни Уивер

Описание: Робот ВАЛЛ·И из года в год прилежно трудится на опустевшей Земле, очищая нашу планету от гор мусора, которые оставили после себя улетевшие в космос люди. Он и не представляет, что совсем скоро произойдут невероятные события, благодаря которым он встретит друзей, поднимется к звездам и даже сумеет изменить к лучшему своих бывших хозяев, совсем позабывших родную Землю.






Тип релиза: BDRip-AVC 720p [IIIKOJIO3ABP]
Контейнер: MKV
Видео: x264@Hi10P, 1280x536, 2.35:1, ~2600 kbps, 23,976 fps, 2 pass
Аудио 1: 48 kHz, AC3, 3/2 (L,C,R,l,r) + LFE ch, ~640.00 kbps avg | Dub
Аудио 2: 48 kHz, AC3, 3/2 (L,C,R,l,r) + LFE ch, ~640.00 kbps avg | Original
Формат субтитров: softsub (SRT)


Рип в High 10 Profile, в настоящее время не поддерживается большинством аппаратных проигрывателей и предназначен для воспроизведения только на ПК. Для корректного воспроизведения может потребоваться обновление ПО.


x264 [info]: frame I:1288 Avg QP:25.02 size:100196
x264 [info]: frame P:38333 Avg QP:29.24 size: 25578
x264 [info]: frame B:102365 Avg QP:31.23 size: 7964
x264 [info]: consecutive B-frames: 6.0% 5.4% 11.6% 29.5% 13.0% 24.6% 4.2% 3.1% 1.4% 0.6% 0.7%
x264 [info]: mb I I16..4: 9.8% 65.8% 24.4%
x264 [info]: mb P I16..4: 1.8% 7.3% 2.0% P16..4: 35.1% 34.4% 9.4% 0.0% 0.0% skip: 9.9%
x264 [info]: mb B I16..4: 0.3% 0.8% 0.2% B16..8: 33.3% 13.9% 2.0% direct: 4.6% skip:44.9% L0:39.7% L1:46.8% BI:13.5%
x264 [info]: 8x8 transform intra:65.2% inter:70.7%
x264 [info]: direct mvs spatial:94.3% temporal:5.7%
x264 [info]: coded y,uvDC,uvAC intra: 76.6% 80.6% 55.6% inter: 18.6% 20.7% 5.2%
x264 [info]: i16 v,h,dc,p: 8% 41% 3% 48%
x264 [info]: i8 v,h,dc,ddl,ddr,vr,hd,vl,hu: 7% 10% 2% 10% 16% 14% 17% 11% 13%
x264 [info]: i4 v,h,dc,ddl,ddr,vr,hd,vl,hu: 12% 20% 4% 7% 13% 11% 14% 9% 11%
x264 [info]: i8c dc,h,v,p: 30% 27% 14% 29%
x264 [info]: Weighted P-Frames: Y:11.1% UV:7.7%
x264 [info]: ref P L0: 59.2% 17.9% 8.2% 4.1% 2.6% 2.4% 1.9% 1.2% 1.0% 1.1% 0.4% 0.0%
x264 [info]: ref B L0: 77.2% 10.6% 4.8% 2.4% 1.6% 1.2% 1.0% 0.6% 0.4% 0.2%
x264 [info]: ref B L1: 93.7% 6.3%
x264 [info]: kb/s:2600.19
Format : Matroska
Format version : Version 2
File size : 2.68 GiB
Duration : 1h 38mn
Overall bit rate : 3 882 Kbps
Encoded date : UTC 2014-02-17 15:44:17
Writing application : mkvmerge v5.5.0 ('Healer') built on Apr 24 2012 23:47:03
Writing library : libebml v1.2.3 + libmatroska v1.3.0
Video #1
ID : 1
Format : AVC
Format/Info : Advanced Video Codec
Format profile : High 10@L4.1
Format settings, CABAC : Yes
Format settings, ReFrames : 11 frames
Codec ID : V_MPEG4/ISO/AVC
Duration : 1h 38mn
Bit rate : 2 600 Kbps
Width : 1 280 pixels
Height : 536 pixels
Display aspect ratio : 2.40:1
Frame rate : 23.976 fps
Color space : YUV
Chroma subsampling : 4:2:0
Bit depth : 10 bits
Scan type : Progressive
Bits/(Pixel*Frame) : 0.158
Stream size : 1.74 GiB (65%)
Writing library : x264 core 124 r2197 69a0443
Encoding settings : cabac=1 / ref=11 / deblock=1:-2:-2 / analyse=0x3:0x113 / me=umh / subme=11 / psy=1 / psy_rd=1.00:0.00 / mixed_ref=1 / me_range=32 / chroma_me=1 / trellis=2 / 8x8dct=1 / cqm=0 / deadzone=21,11 / fast_pskip=0 / chroma_qp_offset=-2 / threads=18 / sliced_threads=0 / nr=0 / decimate=1 / interlaced=0 / bluray_compat=0 / constrained_intra=0 / bframes=10 / b_pyramid=2 / b_adapt=2 / b_bias=0 / direct=3 / weightb=1 / open_gop=0 / weightp=2 / keyint=240 / keyint_min=24 / scenecut=40 / intra_refresh=0 / rc=2pass / mbtree=0 / bitrate=2600 / ratetol=1.0 / qcomp=0.60 / qpmin=0 / qpmax=69 / qpstep=5 / cplxblur=20.0 / qblur=0.5 / ip_ratio=1.40 / pb_ratio=1.30 / aq=2:0.80
Language : English
Default : Yes
Forced : No
Audio #2
ID : 2
Format : AC-3
Format/Info : Audio Coding 3
Mode extension : CM (complete main)
Format settings, Endianness : Big
Codec ID : A_AC3
Duration : 1h 38mn
Bit rate mode : Constant
Bit rate : 640 Kbps
Channel(s) : 6 channels
Channel positions : Front: L C R, Side: L R, LFE
Sampling rate : 48.0 KHz
Bit depth : 16 bits
Compression mode : Lossy
Stream size : 452 MiB (16%)
Title : Dub
Language : Russian
Default : Yes
Forced : No
Audio #3
ID : 3
Format : AC-3
Format/Info : Audio Coding 3
Mode extension : CM (complete main)
Format settings, Endianness : Big
Codec ID : A_AC3
Duration : 1h 38mn
Bit rate mode : Constant
Bit rate : 640 Kbps
Channel(s) : 6 channels
Channel positions : Front: L C R, Side: L R, LFE
Sampling rate : 48.0 KHz
Bit depth : 16 bits
Compression mode : Lossy
Stream size : 452 MiB (16%)
Title : Original
Language : English
Default : No
Forced : No
Text #4
ID : 4
Format : UTF-8
Codec ID : S_TEXT/UTF8
Codec ID/Info : UTF-8 Plain Text
Title : Full
Language : Russian
Default : No
Forced : No
Text #5
ID : 5
Format : UTF-8
Codec ID : S_TEXT/UTF8
Codec ID/Info : UTF-8 Plain Text
Title : Full
Language : English
Default : No
Forced : No
Идея создать мультфильм о роботе ВАЛЛ·И появилась на студии Pixar в далёком 1994 году. От идеи до премьеры фильма прошло 14 лет.
Большинство роботов озвучено Беном Берттом с помощью созданных им самим механических звуков.
Разработкой Евы занимался Джонатан Айв, дизайнер, подаривший миру iPod, iMac, iPhone.
Имя «ВАЛЛ·И» расшифровывается как — Вселенский Аннигилятор Ландшафтный Легкий — Интеллектуальный.
Образец для рук роботов-уборщиков был найден в ручках туалетных кабинок студии Pixar.
Тизер содержит часть оригинальной музыки Майкла Кэмена для фильма «Бразилия» (1985). Майкл Кэмен собирался написать музыку к «Суперсемейке» (2004), но умер перед началом съёмок.
Джим Рирдон покинул свой пост директора сериала «Симпсоны» (1989), чтобы сделать анимацию для этого фильма.
Это первый фильм Pixar с использованием реальной игры актеров.
ВАЛЛ·И собирает многочисленные предметы из 60х-80х годов, в том числе видеокассету с фильмом «Хелло, Долли!» (1969), Кубик Рубика, и даже Atari 2600 с игрой Pong. Несмотря на то, что действие фильма происходит спустя 800 лет, как эти предметы были созданы, они все ещё находятся в рабочем состоянии.
Последний кусок мусора, который отбрасывает ВАЛЛ·И в то время, когда покидает Землю, это первый искусственный спутник Земли, запущенный в СССР.
Фильм посвящен Джастину Райту, 27-летнему аниматору Pixar, который умер от сердечного приступа.
Протокол, на который запрограммирован автопилот (АВТО), A113 — это ссылка на класс анимации в Калифорнийском институте искусств, где учились многие аниматоры Pixar.
Финальные титры содержат не только картины в стиле многих древних культур, но и имитируют конкретных исполнителей, таких, как Винсент Ван Гог, Жорж-Пьер Сера, и Пьер-Огюст Ренуар.
Сцена, где капитан сражается с бортовым компьютером под музыку Штрауса, это ссылка на фильм «Космическая одиссея 2001»(1968).
После зарядки солнечных батарей Валл-и издает звук, такой же звук издают компьютеры Apple при загрузке.
У фильма есть ещё один слоган: «Он делал свое дело 700 лет. Теперь ему предстоит открыть свое истинное предназначение.»
У ВАЛЛ-И целая коллекция зажигалок Zippo, некоторые из них даже работают — через 700 лет после производства! Очевидно, что это отсылка к известному качеству продукции компании Zippo.
В игре World of Warcraft специально для инженеров есть робот-почтальон МЯЛЛ·И.
Многие замечают схожесть персонажей-роботов WALL-E и Johnny 5 из фильма «Короткое замыкание» (1986), вплоть до оформления постера к фильму.
Blu-Ray (~23 Mbps) VS BDRip Hi10P (2,5 Mbps)







   Похожие торренты   Торрент   Размер 
В этой теме нет новых непрочитанных сообщений. ВАЛЛ·И / WALL·E (2008) BDRip 720p от NNNB | 60 fps

281 | 29

4.12 ГБ

В этой теме нет новых непрочитанных сообщений. ВАЛЛ-И / WALL-E (2008) BDRip [720p] от HQ-ViDEO.

29 | 7

4.94 ГБ

В этой теме нет новых непрочитанных сообщений. ВАЛЛ-И / WALL-E (2008) BDRip 720p от Filmrus

51 | 7

5.46 ГБ

В этой теме нет новых непрочитанных сообщений. Загадочная история Бенджамина Баттона / The Curious Case of Benjamin Button (2008) BDRip 720p [Hi10P] от IIIKOJIO3ABP

168 | 17

4.06 ГБ

В этой теме нет новых непрочитанных сообщений. ВАЛЛ·И / WALL·E (2008) BDRip 720p от HQCLUB | Лицензия

274 | 40

4.37 ГБ

В этой теме нет новых непрочитанных сообщений. ВАЛЛ·И / WALL·E (2008) BDRip 720p от HELLYWOOD | Лицензия

240 | 2

2.18 ГБ

В этой теме нет новых непрочитанных сообщений. ВАЛЛ·И / WALL·E (2008) BDRip 720p от HELLYWOOD | Лицензия

41 | 2

4.37 ГБ




Вы не можете начинать темы
Вы не можете отвечать на сообщения
Вы не можете редактировать свои сообщения
Вы не можете удалять свои сообщения
Вы не можете добавлять вложения

Перейти:  
Для Мосгорсуда, Роскомнадзора и рекламодателей: mosgorsud-torrent[собачка]yandex.ru
 Вход
ppkBB3cker v.2 © 2008-2014 @ PPK
[ Time : 0.041s | 18 Queries | GZIP : Off ]

cron