img image001 image001 image001 image001 image001 image001 image001 image001 image001 image001 image001 image001 image001 image001 image001

Planets Sun Sun Sun
Статистика раздачи
Автор: Nickolas3434 | Размер: 16.43 ГБ | Добавлен: 19 фев 2014
Раздают: 30    Качают: 25
Скачать торрент
Скачать торрент
Описание торрента

СообщениеДобавлено: 19 фев 2014 

Информация о фильме

Название: Кумба
Оригинальное название: Khumba
Год выпуска: 2013
Жанр: Мультфильм, приключения, семейный
Выпущено: ЮАР,Triggerfish Animation
Режиссер: Энтони Силверстон
В ролях: Джейк Т. Остин, Лиам Нисон, Стив Бушеми, Анна-София Робб, Лоренс Фишбёрн, Грег Эллис, Ричард Э. Грант, Кэтрин Тейт, Чарльз Адлер, Ди Брэдли Бейкер
О фильме: Зебра Кумба с самого рождения был посмешищем всего стада из-за того, что родился наполовину полосатым, а наполовину белым. Хуже того, когда началась Великая Засуха, сородичи решили, что он проклят, и в нем причина всех бед. Стадо изгнало Кумбу, и даже отец отвернулся от него! Отважная полуполосатая зебра отправляется в опасные и веселые приключения, чтобы найти недостающие полоски и заслужить уважение семьи…

Файл

Качество: Blu-Ray Remux (1080p)
Видео: MPEG-4 AVC, 24818 Кбит/с, 1920x1080, 23.976 кадр/с
Аудио: Русский (AC3, 6 ch, 448 Кбит/с), (AC3, 6 ch, 384 Кбит/с), английский (AC3, 6 ch, 448 Кбит/с), (True-HD, 6 ch, 1635 Кбит/с)
Размер: 16.43 ГБ
Продолжительность: 1:25:18
Перевод: Дублированный, любительский одноголосый
Субтитры: Английские

Аудио1: Русский (AC3, 6 ch, 448 Кбит/с) - Дублированный
Аудио2: Русский (AC3, 6 ch, 384 Кбит/с) - Любительский одноголосый закадровый - [VANO]
За исходник, большое спасибо Админ & BLUEBIRD
Сохранены оригинальные чаптеры как на Blu-Ray
Общее
Уникальный идентификатор : 249907504802041797367049729483841582657 (0xBC026F475AC7A39CA9D8D25064B9B641)
Полное имя : D:ЗагрузкиKhumba.2013.2013.BDRemux.(1080p).ExKinoRay.mkv
Формат : Matroska
Версия формата : Version 2
Размер файла : 16,4 Гбайт
Продолжительность : 1 ч. 25 м.
Режим общего битрейта : Переменный
Общий поток : 27,6 Мбит/сек
Название фильма : Кумба.2013.Сборкa: ollan
Дата кодирования : UTC 2014-02-18 04:09:52
Программа кодирования : mkvmerge v5.6.0 ('Kenya Kane') built on May 27 2012 16:44:04
Библиотека кодирования : libebml v1.2.3 + libmatroska v1.3.0

Видео
Идентификатор : 1
Формат : AVC
Формат/Информация : Advanced Video Codec
Профиль формата : High@L4.1
Параметр CABAC формата : Да
Параметр ReFrames формата : 3 кадра
Идентификатор кодека : V_MPEG4/ISO/AVC
Продолжительность : 1 ч. 25 м.
Вид битрейта : Переменный
Максимальный битрейт : 31,0 Мбит/сек
Ширина : 1920 пикселей
Высота : 1080 пикселей
Соотношение сторон : 16:9
Режим частоты кадров : Постоянный
Частота кадров : 23,976 кадра/сек
Цветовое пространство : YUV
Субдискретизация насыщенности : 4:2:0
Битовая глубина : 8 бит
Тип развёртки : Прогрессивная
Default : Да
Forced : Нет

Аудио #1
Идентификатор : 2
Формат : AC-3
Формат/Информация : Audio Coding 3
Расширение режима : CM (complete main)
Параметр Endianness формата : Big
Идентификатор кодека : A_AC3
Продолжительность : 1 ч. 25 м.
Вид битрейта : Постоянный
Битрейт : 448 Кбит/сек
Каналы : 6 каналов
Расположение каналов : Front: L C R, Side: L R, LFE
Частота : 48,0 КГц
Битовая глубина : 16 бит
Метод сжатия : С потерями
Размер потока : 273 Мбайт (2%)
Заголовок : Дублированный
Язык : Russian
Default : Да
Forced : Нет

Аудио #2
Идентификатор : 3
Формат : AC-3
Формат/Информация : Audio Coding 3
Расширение режима : CM (complete main)
Параметр Endianness формата : Big
Идентификатор кодека : A_AC3
Продолжительность : 1 ч. 25 м.
Вид битрейта : Постоянный
Битрейт : 384 Кбит/сек
Каналы : 6 каналов
Расположение каналов : Front: L C R, Side: L R, LFE
Частота : 48,0 КГц
Битовая глубина : 16 бит
Метод сжатия : С потерями
Размер потока : 234 Мбайт (1%)
Заголовок : Любительский одноголoсый [VANO]
Язык : Russian
Default : Нет
Forced : Нет

Аудио #3
Идентификатор : 4
Формат : TrueHD
Идентификатор кодека : A_TRUEHD
Продолжительность : 1 ч. 25 м.
Вид битрейта : Переменный
Максимальный битрейт : 2613 Кбит/сек
Каналы : 6 каналов
Расположение каналов : Front: L C R, Side: L R, LFE
Частота : 48,0 КГц
Метод сжатия : Без потерь
Язык : English
Default : Нет
Forced : Нет

Аудио #4
Идентификатор : 6
Формат : AC-3
Формат/Информация : Audio Coding 3
Расширение режима : CM (complete main)
Параметр Endianness формата : Big
Идентификатор кодека : A_AC3
Продолжительность : 1 ч. 25 м.
Вид битрейта : Постоянный
Битрейт : 448 Кбит/сек
Каналы : 6 каналов
Расположение каналов : Front: L C R, Side: L R, LFE
Частота : 48,0 КГц
Битовая глубина : 16 бит
Метод сжатия : С потерями
Размер потока : 273 Мбайт (2%)
Заголовок : English
Язык : English
Default : Нет
Forced : Нет

Текст
Идентификатор : 5
Формат : UTF-8
Идентификатор кодека : S_TEXT/UTF8
Идентификатор кодека/Информация : UTF-8 Plain Text
Язык : English
Default : Нет
Forced : Нет

Меню
00:00:00.000 : :Chapter 01
00:07:02.880 : :Chapter 02
00:14:33.622 : :Chapter 03
00:24:04.484 : :Chapter 04
00:30:51.933 : :Chapter 05
00:38:02.488 : :Chapter 06
00:45:18.507 : :Chapter 07
00:50:56.344 : :Chapter 08
00:55:26.865 : :Chapter 09
01:00:10.857 : :Chapter 10
01:09:02.304 : :Chapter 11
01:19:12.789 : :Chapter 12
01:25:17.862 : :Chapter 13







Релиз от: Сборка:



   Похожие торренты   Торрент   Размер 
В этой теме нет новых непрочитанных сообщений. Король сафари / Кумба / Khumba (2013) BDRemux 1080p от New-Team | D | лицензия

33 | 13

16.78 ГБ

В этой теме нет новых непрочитанных сообщений. Кумба / Khumba (2013) HDRip-AVC от ExKinoRay | D, L1

39 | 4

1.61 ГБ

В этой теме нет новых непрочитанных сообщений. Кумба / Khumba (2013) BDRip 1080p

745 | 156

4.37 ГБ

В этой теме нет новых непрочитанных сообщений. Кумба 2D, 3D / Khumba 2D, 3D (2013) Blu-Ray 1080p от BLUEBIRD | 3D-Video | Лицензия

5 | 4

36.23 ГБ

В этой теме нет новых непрочитанных сообщений. Кумба / Khumba (2013) BDRip 1080p от Ash61 | 3D-Video | halfOU

276 | 61

3.9 ГБ

В этой теме нет новых непрочитанных сообщений. Король сафари / Кумба / Khumba (2013) BDRip 1080p от New-Team | 2xD, L1 | лицензия

196 | 51

6.5 ГБ

В этой теме нет новых непрочитанных сообщений. Король сафари / Кумба / Khumba (2013) BDRip 1080p от Ash61 | 3D-Video | halfOU | Лицензия

414 | 55

4.16 ГБ




Вы не можете начинать темы
Вы не можете отвечать на сообщения
Вы не можете редактировать свои сообщения
Вы не можете удалять свои сообщения
Вы не можете добавлять вложения

Перейти:  
Для Мосгорсуда, Роскомнадзора и рекламодателей: mosgorsud-torrent[собачка]yandex.ru
 Вход
ppkBB3cker v.2 © 2008-2014 @ PPK
[ Time : 0.134s | 15 Queries | GZIP : Off ]

Торрент трекер RUTOR.IN, Не можете зайти на rutor.org? Какой новый адрес рутор? Какое зеркало рутор? Не работает rutor.org и зеркала? Тогда наш торрент специально для вас. Rutor.in неофициальное зеркало rutor. В случае если у Вас заблокирован rutor или вдруг Вы не можете на него зайти, то Вы без труда сможете скачать бесплатно и без рекламы последние новинки кино, игр, сериалов и прочего у нас, на Rutor.in. Не нужно использовать прокси, чтобы зайти на рутор, достаточно воспользоваться нашим ресурсом. Все новые фильмы, игры, сериалы, книги и музыка за 2013 и 2014 годы через торрент бесплатно. Скачивайте фильмы в хорошем качестве, игры для пк, xbox, playstation без регистрации. У нас вы найдете новые Зарубежные сериалы и Русские сериалы 2013, 2014, 2015 годов. Оставайтесь с нами, качайте любимые фильмы, игры, сериалы, книги и музыку.