img image001 image001 image001 image001 image001 image001 image001 image001 image001 image001 image001 image001 image001 image001 image001

Planets Sun Sun Sun
Статистика раздачи
Автор: Nickolas3434 | Размер: 1.71 ГБ | Добавлен: 19 фев 2014
Раздают: 29    Качают: 8
Скачать торрент
Скачать торрент
Описание торрента

СообщениеДобавлено: 19 фев 2014 

Эпик / Epic (2013) HDRip-AVC | iPhone | D


Название: Эпик
Оригинальное название: Epic
Год выхода: 2013
Жанр: мультфильм, фэнтези, приключения, комедия, семейный
Режиссер: Крис Уэдж
В ролях: Джош Хатчерсон, Аманда Сайфред, Колин Фаррелл, Джейсон Судейкис, Азиз Ансари, Бейонсе Ноулз, Джонни Ноксвилл, Джуда Фридлендер, Блейк Андерсон, Кристоф Вальц, Стивен Тайлер, Питбулл, Джейсон Харрис, Эмма Кинни

О фильме:
После долгой разлуки юная Мэри Кэтрин возвращается в дом, где отшельником живет ее отец, безумный профессор Бомба. Однако тот совсем не обращает внимания на дочь и одержим лишь одной идеей — изучить скрытый от посторонних глаз таинственный лесной мир. Девушка отказывается верить, что под ногами человечества идет вечная борьба между армиями, воюющими на сторонах добра и зла. Чудесным образом Мэри Кэтрин уменьшается в размерах и знакомится с маленькими воинами. Теперь от нее зависит спасение не только волшебного лесного, но и реального человеческого мира…


Страна: США
Студия: Twentieth Century Fox Animation, Blue Sky Studiosp

Продолжительность: 01:42:29
Перевод: Русский дублированный, Украинский дублированный

Файл
Кодек: H.264
Качество: HDRip-AVC 480p iPhone
Видео: 640x354@852x354 (1.893) at 23.976 fps, AVC at 1800 kbps
Звук:
1: 48 kHz, AAC 2.0, 192 kbps - Русский дублированный
2: 48 kHz, AAC 2.0, 192 kbps - Украинский дублированный
3: 48 kHz, AAC 2.0, 192 kbps - Английский
Субтитры: Русские, Украинские, Английские

General
Complete name : C:CREATE480outEpic.2013 (SD).m4v
Format : MPEG-4
Codec ID : M4V
File size : 1.71 GiB
Duration : 1h 42mn
Overall bit rate mode : Variable
Overall bit rate : 2 395 Kbps
Movie name : Эпик
Performer : Крис Уэдж
Genre : Action & Adventure
Recorded date : UTC 2013-05-24 07:00:00
Encoded date : UTC 2013-09-18 18:35:14
Tagged date : UTC 2013-09-18 18:36:18
Copyright : © Twentieth Century Fox Animation, Blue Sky Studios
Cover : Yes
Comment : «Discover a world beyond your imagination»
sonm : Epic
desc : Вы никогда не задумывались о том, что за порогом вашего дома, в самом обыкновенном саду, может кипеть настоящая жизнь со злодеями, храбрецами, тайнами и магией?
ldes : Вы никогда не задумывались о том, что за порогом вашего дома, в самом обыкновенном саду, может кипеть настоящая жизнь со злодеями, храбрецами, тайнами и магией? Что злобная мерзкая паучиха творит козни всем обитателям зеленого королевства, чтобы ухоженный благоухающий сад превратился в сухой хворост да серую пыль?
hdvd : 0
stik : 9
cnID : 657510588
xid : Apple:vendor_id:2013-463868
iTunEXTC : mpaa|PG|200|

Video
ID : 1
Format : AVC
Format/Info : Advanced Video Codec
Format profile : Baseline@L3.0
Format settings, CABAC : No
Format settings, ReFrames : 2 frames
Codec ID : avc1
Codec ID/Info : Advanced Video Coding
Duration : 1h 42mn
Bit rate : 1 800 Kbps
Maximum bit rate : 8 223 Kbps
Width : 640 pixels
Height : 354 pixels
Display aspect ratio : 2.40:1
Frame rate mode : Constant
Frame rate : 23.976 fps
Color space : YUV
Chroma subsampling : 4:2:0
Bit depth : 8 bits
Scan type : Progressive
Bits/(Pixel*Frame) : 0.331
Stream size : 1.29 GiB (75%)
Title : Epic (2013) -Released for NNM-Club
Writing library : x264 core 138 r2359+704+48 3f879a0 tMod [8-bit@4:2:0 X86_64]
Encoding settings : cabac=0 / ref=2 / deblock=1:-1:-1 / analyse=0x1:0x131 / me=tesa / subme=7 / psy=1 / fade_compensate=1.00 / psy_rd=0.70:0.20 / mixed_ref=1 / me_range=32 / chroma_me=1 / trellis=2 / 8x8dct=0 / cqm=0 / deadzone=21,11 / fast_pskip=0 / chroma_qp_offset=-3 / threads=12 / lookahead_threads=2 / sliced_threads=0 / nr=0 / decimate=0 / interlaced=0 / bluray_compat=0 / constrained_intra=0 / fgo=5 / bframes=0 / weightp=0 / keyint=250 / keyint_min=23 / scenecut=40 / intra_refresh=0 / rc_lookahead=120 / rc=2pass / mbtree=1 / bitrate=1800 / ratetol=1.0 / qcomp=0.70 / qpmin=0:0:0 / qpmax=69:69:69 / qpstep=4 / cplxblur=20.0 / qblur=0.5 / vbv_maxrate=5000 / vbv_bufsize=5000 / nal_hrd=none / ip_ratio=1.30 / aq=4:0.90 / aq-sensitivity=10.00 / aq-factor=1.00:1.00:1.00 / aq2=0 / aq3=0
Language : English
Encoded date : UTC 2013-09-18 18:35:14
Tagged date : UTC 2013-09-18 18:35:40
Matrix coefficients : BT.709

Audio #1
ID : 2
Format : AAC
Format/Info : Advanced Audio Codec
Format profile : LC
Codec ID : 40
Duration : 1h 42mn
Bit rate mode : Variable
Bit rate : 192 Kbps
Maximum bit rate : 233 Kbps
Channel(s) : 2 channels
Channel positions : Front: L R
Sampling rate : 48.0 KHz
Compression mode : Lossy
Stream size : 143 MiB (8%)
Title : AAC Russian DUB ( BD EUR)
Language : Russian
Encoded date : UTC 2013-09-18 18:35:26
Tagged date : UTC 2013-09-18 18:35:40

Audio #2
ID : 3
Format : AAC
Format/Info : Advanced Audio Codec
Format profile : LC
Codec ID : 40
Duration : 1h 42mn
Bit rate mode : Variable
Bit rate : 196 Kbps
Maximum bit rate : 235 Kbps
Channel(s) : 2 channels
Channel positions : Front: L R
Sampling rate : 48.0 KHz
Compression mode : Lossy
Stream size : 144 MiB (8%)
Title : AAC Ukrainian DUB (BD EUR)
Language : Ukrainian
Encoded date : UTC 2013-09-18 18:35:31
Tagged date : UTC 2013-09-18 18:35:40

Audio #3
ID : 4
Format : AAC
Format/Info : Advanced Audio Codec
Format profile : LC
Codec ID : 40
Duration : 1h 42mn
Bit rate mode : Variable
Bit rate : 198 Kbps
Maximum bit rate : 240 Kbps
Channel(s) : 2 channels
Channel positions : Front: L R
Sampling rate : 48.0 KHz
Compression mode : Lossy
Stream size : 145 MiB (8%)
Title : AAC English (BD EUR)
Language : English
Encoded date : UTC 2013-09-18 18:35:35
Tagged date : UTC 2013-09-18 18:35:40

Text #1
ID : 5
Format : Timed Text
Muxing mode : sbtl
Codec ID : tx3g
Duration : 1h 42mn
Bit rate mode : Variable
Bit rate : 73 bps
Stream size : 54.3 KiB (0%)
Title : Subtitle Russian (Full, BD EUR)
Language : Russian
Encoded date : UTC 2013-09-18 18:35:40
Tagged date : UTC 2013-09-18 18:35:40

Text #2
ID : 6
Format : Timed Text
Muxing mode : sbtl
Codec ID : tx3g
Duration : 1h 42mn
Bit rate mode : Variable
Bit rate : 74 bps
Stream size : 55.5 KiB (0%)
Title : Full, BD EUR
Language : Ukrainian
Encoded date : UTC 2013-09-18 18:35:40
Tagged date : UTC 2013-09-18 18:35:40

Text #3
ID : 7
Format : Timed Text
Muxing mode : sbtl
Codec ID : tx3g
Duration : 1h 37mn
Bit rate mode : Variable
Bit rate : 64 bps
Stream size : 45.8 KiB (0%)
Title : Subtitle English (Full,BD EUR)
Language : English
Encoded date : UTC 2013-09-18 18:35:40
Tagged date : UTC 2013-09-18 18:35:40

Text #4
ID : 8
Format : Timed Text
Muxing mode : sbtl
Codec ID : tx3g
Duration : 1h 37mn
Bit rate mode : Variable
Bit rate : 72 bps
Stream size : 51.5 KiB (0%)
Title : Subtitle English SDH
Language : English
Encoded date : UTC 2013-09-18 18:35:40
Tagged date : UTC 2013-09-18 18:35:40

Menu
ID : 9
Codec ID : text
Duration : 1h 42mn
Encoded date : UTC 2013-09-18 18:36:09
Tagged date : UTC 2013-09-18 18:36:09
Bit rate mode : CBR

Sort Name: Epic
XID: Apple:vendor_id:2013-463868
Content ID: 657510588
Copyright: © Twentieth Century Fox Animation, Blue Sky Studios
ScreenWriters: Джеймс В. Харт, Уильям Джойс, Дэниэл Шер
Producers: Джерри Дэвис, Лори Форте, Джеймс В. Харт
Director: Крис Уэдж
Cast: Джош Хатчерсон, Аманда Сайфред, Колин Фаррелл, Джейсон Судейкис, Азиз Ансари, Бейонсе Ноулз, Джонни Ноксвилл, Джуда Фридлендер, Блейк Андерсон, Кристоф Вальц, Стивен Тайлер, Питбулл, Джейсон Харрис, Эмма Кинни
Rating: PG
Long Deion: Вы никогда не задумывались о том, что за порогом вашего дома, в самом обыкновенном саду, может кипеть настоящая жизнь со злодеями, храбрецами, тайнами и магией? Что злобная мерзкая паучиха творит козни всем обитателям зеленого королевства, чтобы ухоженный благоухающий сад превратился в сухой хворост да серую пыль?
Deion: Вы никогда не задумывались о том, что за порогом вашего дома, в самом обыкновенном саду, может кипеть настоящая жизнь со злодеями, храбрецами, тайнами и магией?
Release Date: 2013-05-24T07:00:00Z
Genre: Action & Adventure
Artist: Крис Уэдж
Name: Эпик
Comments: «Discover a world beyond your imagination»
x264 [info]: frame I:2545 Avg QP:17.42 size: 27507
x264 [info]: frame P:144887 Avg QP:19.21 size: 9041
x264 [info]: mb I I16..4: 26.1% 0.0% 73.9%
x264 [info]: mb P I16..4: 1.0% 0.0% 2.6% P16..4: 42.9% 20.3% 13.8% 2.5% 1.3% skip:15.6%
x264 [info]: coded y,uvDC,uvAC intra: 64.1% 81.5% 56.0% inter: 44.4% 43.3% 26.2%
x264 [info]: i16 v,h,dc,p: 42% 12% 7% 39%
x264 [info]: i4 v,h,dc,ddl,ddr,vr,hd,vl,hu: 37% 11% 13% 6% 8% 8% 6% 7% 5%
x264 [info]: i8c dc,h,v,p: 47% 14% 27% 12%
x264 [info]: ref P L0: 81.1% 18.9%
x264 [info]: kb/s:1795.25




   Похожие торренты   Торрент   Размер 
В этой теме нет новых непрочитанных сообщений. Эпик / Epic (2013) HDRip | iTunes Russia

165 | 22

2.05 ГБ

В этой теме нет новых непрочитанных сообщений. Эпик / Epic (2013) HDRip | iTunes Russia

27 | 4

1.38 ГБ

В этой теме нет новых непрочитанных сообщений. Эпик / Epic (2013) HDRip-720p | D | Трейлер

1 | 2

43.02 МБ

В этой теме нет новых непрочитанных сообщений. Эпик / Epic (2013) HDRip | iTunes Russia

46 | 6

697.2 МБ

В этой теме нет новых непрочитанных сообщений. Эпик / Epic (2013) HDRip от Scarabey | iTunes Russia

36 | 2

745.07 МБ

В этой теме нет новых непрочитанных сообщений. Эпик / Epic (2013) HDRip от Generalfilm | КПК | iTunes Russia

8 | 6

425.7 МБ

В этой теме нет новых непрочитанных сообщений. Эпик / Epic (2013) HDRip от Scarabey | iTunes Russia

218 | 13

1.45 ГБ




Вы не можете начинать темы
Вы не можете отвечать на сообщения
Вы не можете редактировать свои сообщения
Вы не можете удалять свои сообщения
Вы не можете добавлять вложения

Перейти:  
Для Мосгорсуда, Роскомнадзора и рекламодателей: mosgorsud-torrent[собачка]yandex.ru
 Вход
ppkBB3cker v.2 © 2008-2014 @ PPK
[ Time : 0.059s | 16 Queries | GZIP : Off ]

Торрент трекер RUTOR.IN, Не можете зайти на rutor.org? Какой новый адрес рутор? Какое зеркало рутор? Не работает rutor.org и зеркала? Тогда наш торрент специально для вас. Rutor.in неофициальное зеркало rutor. В случае если у Вас заблокирован rutor или вдруг Вы не можете на него зайти, то Вы без труда сможете скачать бесплатно и без рекламы последние новинки кино, игр, сериалов и прочего у нас, на Rutor.in. Не нужно использовать прокси, чтобы зайти на рутор, достаточно воспользоваться нашим ресурсом. Все новые фильмы, игры, сериалы, книги и музыка за 2013 и 2014 годы через торрент бесплатно. Скачивайте фильмы в хорошем качестве, игры для пк, xbox, playstation без регистрации. У нас вы найдете новые Зарубежные сериалы и Русские сериалы 2013, 2014, 2015 годов. Оставайтесь с нами, качайте любимые фильмы, игры, сериалы, книги и музыку.