img image001 image001 image001 image001 image001 image001 image001 image001 image001 image001 image001 image001 image001 image001 image001

Planets Sun Sun Sun
Статистика раздачи
Автор: Nickolas3434 | Размер: 3.9 ГБ | Добавлен: 19 фев 2014
Раздают: 276    Качают: 61
Скачать торрент
Скачать торрент
Описание торрента

СообщениеДобавлено: 19 фев 2014 

Кумба
Khumba



Год выпуска: 2013
Страна: ЮАР (Millennium Entertainment, CMG, Triggerfish Animation Studios)
Жанр: Мультфильм, Приключения, Семейный
Продолжительность: 01:25:18

Перевод: Профессиональный (дублированный)

Режиссер: Энтони Силверстон / Anthony Silverston

Роли озвучивали (на английском): Джейк Т. Остин (Khumba), (Phango), Стив Бушеми (Skalk), (Tombi), Лоренс Фишбёрн (Seko), Грег Эллис (Thabo), Ричард Э. Грант (Bradley), Кэтрин Тейт (Nora), Чарльз Адлер (Wild Dog #1), Ди Брэдли Бейкер (Meerkat Father), Джефф Беннетт (Rabbit)

Описание: Зебра Кумба с самого рождения был посмешищем всего стада из-за того, что родился наполовину полосатым, а наполовину белым. Хуже того, когда началась Великая Засуха, сородичи решили, что он проклят, и в нем причина всех бед. Стадо изгнало Кумбу, и даже отец отвернулся от него! Отважная полуполосатая зебра отправляется в опасные и веселые приключения, чтобы найти недостающие полоски и заслужить уважение семьи…



Премьера: 8 сентября 2013 (24 июля 2014)
Бюджет: $20 000 000




За исходный BD 3D спасибо и АДмин!



Качество: BDRip (by Ash61)
Контейнер: MKV
Формат 3D: Half OverUnder / Вертикальная анаморфная стереопара
Порядок ракурсов: левый ракурс первый
Видео кодек: x264
Аудио кодек: AC3



Видео: AVC / 23,976 fps / 1920х1080p / ~5.3 Mbps

Аудио:
#1 - Русский / AC3 / 48 KHz / 5.1 ch / 448 Kbps (Дубляж)
#2 - Английский / AC3 / 48 KHz / 5.1 ch / 640 Kbps

Субтитры: Отсутствуют

General
Unique ID : 177834722553454310837080353185086134233 (0x85C9B8C36974100BA02A4012DB5557D9)
Complete name : E:Khumba(2013)3D-halfOU(Ash61).mkv
Format : Matroska
Format version : Version 2
File size : 3.90 GiB
Duration : 1h 25mn
Overall bit rate : 6 542 Kbps
Movie name : Кумба / Khumba (2013) 3D
Encoded date : UTC 2014-02-18 14:07:30
Writing application : mkvmerge v5.8.0 ('No Sleep / Pillow') built on Sep 2 2012 15:37:04
Writing library : libebml v1.2.3 + libmatroska v1.3.0

Video
ID : 1
Format : AVC
Format/Info : Advanced Video Codec
Format profile : High@L4.1
Format settings, CABAC : Yes
Format settings, ReFrames : 4 frames
Codec ID : V_MPEG4/ISO/AVC
Duration : 1h 25mn
Bit rate : 5 323 Kbps
Width : 1 920 pixels
Height : 1 080 pixels
Display aspect ratio : 16:9
Frame rate mode : Constant
Frame rate : 23.976 fps
Color space : YUV
Chroma subsampling : 4:2:0
Bit depth : 8 bits
Scan type : Progressive
Bits/(Pixel*Frame) : 0.107
Stream size : 3.17 GiB (81%)
Title : BDRip by Ash61
Writing library : x264 core 129 r2245 bc13772
Encoding settings : cabac=1 / ref=4 / deblock=1:-3:-3 / analyse=0x3:0x113 / me=umh / subme=10 / psy=1 / psy_rd=1.00:0.15 / mixed_ref=1 / me_range=32 / chroma_me=1 / trellis=2 / 8x8dct=1 / cqm=0 / deadzone=21,11 / fast_pskip=1 / chroma_qp_offset=-3 / threads=12 / lookahead_threads=2 / sliced_threads=0 / nr=0 / decimate=1 / interlaced=0 / bluray_compat=0 / constrained_intra=0 / bframes=9 / b_pyramid=2 / b_adapt=2 / b_bias=0 / direct=3 / weightb=1 / open_gop=0 / weightp=2 / keyint=250 / keyint_min=23 / scenecut=40 / intra_refresh=0 / rc_lookahead=60 / rc=crf / mbtree=1 / crf=17.0 / qcomp=0.70 / qpmin=0 / qpmax=69 / qpstep=4 / vbv_maxrate=40000 / vbv_bufsize=30000 / crf_max=0.0 / nal_hrd=none / frame-packing=4 / ip_ratio=1.40 / aq=1:0.70
Language : English
Default : Yes
Forced : No

Audio #1
ID : 2
Format : AC-3
Format/Info : Audio Coding 3
Mode extension : CM (complete main)
Format settings, Endianness : Big
Codec ID : A_AC3
Duration : 1h 25mn
Bit rate mode : Constant
Bit rate : 448 Kbps
Channel(s) : 6 channels
Channel positions : Front: L C R, Side: L R, LFE
Sampling rate : 48.0 KHz
Bit depth : 16 bits
Compression mode : Lossy
Stream size : 273 MiB (7%)
Title : Дубляж
Language : Russian
Default : Yes
Forced : No

Audio #2
ID : 3
Format : AC-3
Format/Info : Audio Coding 3
Mode extension : CM (complete main)
Format settings, Endianness : Big
Codec ID : A_AC3
Duration : 1h 25mn
Bit rate mode : Constant
Bit rate : 640 Kbps
Channel(s) : 6 channels
Channel positions : Front: L C R, Side: L R, LFE
Sampling rate : 48.0 KHz
Bit depth : 16 bits
Compression mode : Lossy
Stream size : 390 MiB (10%)
Language : English
Default : No
Forced : No

Menu
00:00:00.000 : :1
00:07:02.881 : :2
00:14:33.623 : :3
00:24:04.485 : :4
00:30:51.933 : :5
00:38:02.489 : :6
00:45:18.507 : :7
00:50:56.345 : :8
00:55:26.865 : :9
01:00:10.857 : :10
01:09:02.305 : :11
01:19:12.790 : :12


















   Похожие торренты   Торрент   Размер 
В этой теме нет новых непрочитанных сообщений. Король сафари / Кумба / Khumba (2013) BDRip 1080p от Ash61 | 3D-Video | halfOU | Лицензия

414 | 55

4.16 ГБ

В этой теме нет новых непрочитанных сообщений. Кумба 2D, 3D / Khumba 2D, 3D (2013) Blu-Ray 1080p от BLUEBIRD | 3D-Video | Лицензия

5 | 4

36.23 ГБ

В этой теме нет новых непрочитанных сообщений. Кумба / Khumba (2013) BDRip 1080p

745 | 156

4.37 ГБ

В этой теме нет новых непрочитанных сообщений. Король сафари / Кумба / Khumba (2013) BDRip 1080p от New-Team | 2xD, L1 | лицензия

195 | 51

6.5 ГБ

В этой теме нет новых непрочитанных сообщений. Best of 3D (Vol. 1-9) (2013) BDRip 1080p от Ash61 | 3D-Video | halfOU

146 | 133

35.86 ГБ

В этой теме нет новых непрочитанных сообщений. Беги / Run (2013) BDRip 1080p от Ash61 | 3D-Video | halfOU

306 | 180

10.08 ГБ

В этой теме нет новых непрочитанных сообщений. Мистер Гоу / Mi-seu-teo Go / Mr. Go (2013) BDRip 1080p от Ash61 | 3D-Video | halfOU | L1

107 | 67

17.45 ГБ




Вы не можете начинать темы
Вы не можете отвечать на сообщения
Вы не можете редактировать свои сообщения
Вы не можете удалять свои сообщения
Вы не можете добавлять вложения

Перейти:  
Для Мосгорсуда, Роскомнадзора и рекламодателей: mosgorsud-torrent[собачка]yandex.ru
 Вход
ppkBB3cker v.2 © 2008-2014 @ PPK
[ Time : 0.057s | 15 Queries | GZIP : Off ]

cron