img image001 image001 image001 image001 image001 image001 image001 image001 image001 image001 image001 image001 image001 image001 image001

Planets Sun Sun Sun
Статистика раздачи
Автор: Nickolas3434 | Размер: 2.51 ГБ | Добавлен: 19 фев 2014
Раздают: 29    Качают: 4
Скачать торрент
Скачать торрент
Описание торрента

СообщениеДобавлено: 19 фев 2014 

Информация о фильме

Название: Большой отрыв БОБа
Оригинальное название: B.O.B.'s Big Break
Год выпуска: 2009
Жанр: Комедия, фантастика
Выпущено: США
Режиссер: Роберт Портер
В ролях: Майк Митчел, Уилл Арнетт, Хью Лори, Сет Роген, Кифер Сазерленд
О фильме: У БОБа день рождения и друзья мутанты решили приготовить для него разрывной сюрприз...

Файл

Качество: Blu-Ray Remux (1080p)
Видео: MPEG-4 AVC, 23604 Кбит/с, 1920x1080, 23.976 кадр/с
Аудио: Русский (АС3, 6 ch, 448 Кбит/с), (АС3, 6 ch, 640 Кбит/с), английский (АС3, 6 ch, 640 Кбит/с), (DTS, 6 ch, 1509 Кбит/с)
Размер: 2.51 ГБ
Продолжительность: 00:13:19
Перевод: Дублированный, любительский многоголосый
Субтитры: Русские, английские
Аудио1: Русский (AC3, 6 ch, 640 Кбит/с) - Дублированный
Аудио2: Русский (AC3, 6 ch, 448 Кбит/с) - Любительский многоголосый закадровый
За исходник, большое спасибо Админ & BLUEBIRD
Сохранены оригинальные чаптеры как на Blu-Ray
Общее
Уникальный идентификатор : 248750673692848819575670488917037210439 (0xBB23A319FA94FE48970117110152DB47)
Полное имя : D:ЗагрузкиB.O.B.’s.Big.Break.2009.BDRemux.(1080p).ExKinoRay.mkv
Формат : Matroska
Версия формата : Version 2
Размер файла : 2,51 Гбайт
Продолжительность : 13 м.
Режим общего битрейта : Переменный
Общий поток : 26,8 Мбит/сек
Название фильма : Большой отрыв БОБа.2009.Сборкa: ollan
Дата кодирования : UTC 2014-02-18 20:36:07
Программа кодирования : mkvmerge v5.6.0 ('Kenya Kane') built on May 27 2012 16:44:04
Библиотека кодирования : libebml v1.2.3 + libmatroska v1.3.0

Видео
Идентификатор : 1
Формат : AVC
Формат/Информация : Advanced Video Codec
Профиль формата : High@L4.1
Параметр CABAC формата : Да
Параметр ReFrames формата : 3 кадра
Идентификатор кодека : V_MPEG4/ISO/AVC
Продолжительность : 13 м.
Вид битрейта : Переменный
Битрейт : 23,1 Мбит/сек
Максимальный битрейт : 40,0 Мбит/сек
Ширина : 1920 пикселей
Высота : 1080 пикселей
Соотношение сторон : 16:9
Режим частоты кадров : Постоянный
Частота кадров : 23,976 кадра/сек
Стандарт вещания : NTSC
Цветовое пространство : YUV
Субдискретизация насыщенности : 4:2:0
Битовая глубина : 8 бит
Тип развёртки : Прогрессивная
Бит/(Пиксели*Кадры) : 0.464
Размер потока : 2,15 Гбайт (86%)
Default : Да
Forced : Нет

Аудио #1
Идентификатор : 2
Формат : AC-3
Формат/Информация : Audio Coding 3
Расширение режима : CM (complete main)
Параметр Endianness формата : Big
Идентификатор кодека : A_AC3
Продолжительность : 13 м.
Вид битрейта : Постоянный
Битрейт : 640 Кбит/сек
Каналы : 6 каналов
Расположение каналов : Front: L C R, Side: L R, LFE
Частота : 48,0 КГц
Битовая глубина : 16 бит
Метод сжатия : С потерями
Размер потока : 61,2 Мбайт (2%)
Заголовок : Дублированный
Язык : Russian
Default : Да
Forced : Нет

Аудио #2
Идентификатор : 3
Формат : AC-3
Формат/Информация : Audio Coding 3
Расширение режима : CM (complete main)
Параметр Endianness формата : Big
Идентификатор кодека : A_AC3
Продолжительность : 13 м.
Вид битрейта : Постоянный
Битрейт : 448 Кбит/сек
Каналы : 6 каналов
Расположение каналов : Front: L C R, Side: L R, LFE
Частота : 48,0 КГц
Битовая глубина : 16 бит
Метод сжатия : С потерями
Размер потока : 42,8 Мбайт (2%)
Заголовок : Любительский многоголосый
Язык : Russian
Default : Нет
Forced : Нет

Аудио #3
Идентификатор : 4
Формат : AC-3
Формат/Информация : Audio Coding 3
Расширение режима : CM (complete main)
Параметр Endianness формата : Big
Идентификатор кодека : A_AC3
Продолжительность : 13 м.
Вид битрейта : Постоянный
Битрейт : 640 Кбит/сек
Каналы : 6 каналов
Расположение каналов : Front: L C R, Side: L R, LFE
Частота : 48,0 КГц
Битовая глубина : 16 бит
Метод сжатия : С потерями
Размер потока : 61,2 Мбайт (2%)
Язык : English
Default : Нет
Forced : Нет

Аудио #4
Идентификатор : 5
Формат : DTS
Формат/Информация : Digital Theater Systems
Режим : 16
Параметр Endianness формата : Big
Идентификатор кодека : A_DTS
Продолжительность : 13 м.
Вид битрейта : Постоянный
Битрейт : 1510 Кбит/сек
Каналы : 6 каналов
Расположение каналов : Front: L C R, Side: L R, LFE
Частота : 48,0 КГц
Битовая глубина : 24 бит
Метод сжатия : С потерями
Размер потока : 144 Мбайт (6%)
Язык : English
Default : Нет
Forced : Нет

Текст #1
Идентификатор : 6
Формат : UTF-8
Идентификатор кодека : S_TEXT/UTF8
Идентификатор кодека/Информация : UTF-8 Plain Text
Язык : Russian
Default : Нет
Forced : Нет

Текст #2
Идентификатор : 7
Формат : UTF-8
Идентификатор кодека : S_TEXT/UTF8
Идентификатор кодека/Информация : UTF-8 Plain Text
Язык : English
Default : Нет
Forced : Нет

Меню
00:00:00.000 : :Chapter 01
00:13:21.675 : :Chapter 02







Релиз от: Сборка:



   Похожие торренты   Торрент   Размер 
В этой теме нет новых непрочитанных сообщений. Большой отрыв БОБа / B.O.B.'s Big Break (2009) BDRip-AVC от ExKinoRay | D, L

50 | 10

462.43 МБ

В этой теме нет новых непрочитанных сообщений. Большой отрыв БОБа / B.O.B.'s Big Break (2009) BDrip 1080p | 3D-Video

15 | 3

821.48 МБ

В этой теме нет новых непрочитанных сообщений. Большой отрыв БОБа / B.O.B.'s Big Break (2009) BDRip 720 от SuperMin

24 | 9

442.66 МБ

В этой теме нет новых непрочитанных сообщений. Большой отрыв БОБа / B.O.B.'s Big Break (2009) BDRip от HQ-ViDEO

13 | 2

279.51 МБ

В этой теме нет новых непрочитанных сообщений. Большой отрыв БОБа / B.O.B.'s Big Break 2D (2009) HDRip 720р

3 | 2

624.4 МБ

В этой теме нет новых непрочитанных сообщений. Убить Боба / Killer Bean Forever (2009) BDRip 1080p [Hi10P] от FREEISLAND

46 | 1

2.91 ГБ

В этой теме нет новых непрочитанных сообщений. На гребне волны / Point Break (2015) BDRemux 1080p | Лицензия

765 | 45

26.85 ГБ




Вы не можете начинать темы
Вы не можете отвечать на сообщения
Вы не можете редактировать свои сообщения
Вы не можете удалять свои сообщения
Вы не можете добавлять вложения

Перейти:  
Для Мосгорсуда, Роскомнадзора и рекламодателей: mosgorsud-torrent[собачка]yandex.ru
 Вход
ppkBB3cker v.2 © 2008-2014 @ PPK
[ Time : 0.101s | 16 Queries | GZIP : Off ]

Торрент трекер RUTOR.IN, Не можете зайти на rutor.org? Какой новый адрес рутор? Какое зеркало рутор? Не работает rutor.org и зеркала? Тогда наш торрент специально для вас. Rutor.in неофициальное зеркало rutor. В случае если у Вас заблокирован rutor или вдруг Вы не можете на него зайти, то Вы без труда сможете скачать бесплатно и без рекламы последние новинки кино, игр, сериалов и прочего у нас, на Rutor.in. Не нужно использовать прокси, чтобы зайти на рутор, достаточно воспользоваться нашим ресурсом. Все новые фильмы, игры, сериалы, книги и музыка за 2013 и 2014 годы через торрент бесплатно. Скачивайте фильмы в хорошем качестве, игры для пк, xbox, playstation без регистрации. У нас вы найдете новые Зарубежные сериалы и Русские сериалы 2013, 2014, 2015 годов. Оставайтесь с нами, качайте любимые фильмы, игры, сериалы, книги и музыку.
cron