img image001 image001 image001 image001 image001 image001 image001 image001 image001 image001 image001 image001 image001 image001 image001

Planets Sun Sun Sun
Статистика раздачи
Автор: Nickolas3434 | Размер: 700.88 МБ | Добавлен: 20 фев 2014
Раздают: 64    Качают: 13
Скачать торрент
Скачать торрент
Описание торрента

СообщениеДобавлено: 20 фев 2014 

Братец медвежонок 2: Лоси в бегах / Brother Bear 2 (2006) BDRip-AVC | iPhone | D


Название: Братец медвежонок 2: Лоси в бегах
Оригинальное название: Brother Bear 2
Год выхода: 2006
Жанр: мультфильм, фэнтези, приключения, семейный
Режиссер: Бен Глюк
В ролях: Патрик Демпси, Мэнди Мур, Джереми Суарес, Рик Морэнис, Дэйв Томас, Андреа Мартин, Кэтрин О’Хара, Ванда Сайкес, Уэнди Мэлик, Кэти Нэджими

О фильме:
Это снова мы, но уже в новом мультфильме. Но не только мы, лоси, но также и большой медведь (его зовут Кенаи) и его маленький братец медвежонок (его зовут Кода) и еще новая девочка по имени Нита.



Страна: США
Студия: DisneyToon Studios

Продолжительность: 01:13:15
Перевод: Русский дублированный

Файл
Кодек: H.264
Качество: BDRip-AVC 480p iPhone
Видео: 640x456@852x456 (1.85:1) at 23.976 fps, AVC at 944 kbps
Звук:
1: 48 kHz, AAC 2.0, 192 kbps - Русский дублированный
2: 48 kHz, AAC 2.0, 192 kbps - Английский
Субтитры: Отсутствуют

General
Complete name : C:CREATE480outBrother.Bear.2.2006 (SD).m4v
Format : MPEG-4
Codec ID : M4V
File size : 701 MiB
Duration : 1h 13mn
Overall bit rate mode : Variable
Overall bit rate : 1 334 Kbps
Movie name : Братец медвежонок 2: Лоси в бегах
Performer : Бен Глюк
Genre : Kids & Family
Recorded date : UTC 2006-08-29 07:00:00
Encoded date : UTC 2014-02-19 05:34:45
Tagged date : UTC 2014-02-19 05:54:03
Copyright : © Buena Vista Home Entertainment
Cover : Yes
Comment : «The moose are on the loose»
sonm : Brother Bear 2
desc : Это снова мы, но уже в новом мультфильме. Но не только мы, лоси, но также и большой медведь (его зовут Кенаи) и его маленький братец медвежонок (его зовут Кода) и еще новая девочка по имени Нита.
ldes : Это снова мы, но уже в новом мультфильме. Но не только мы, лоси, но также и большой медведь (его зовут Кенаи) и его маленький братец медвежонок (его зовут Кода) и еще новая девочка по имени Нита.
stik : 9
rtng : 0
cnID : 187696289
xid : Apple:vendor_id:2006-tt0465925
iTunEXTC : mpaa|G|100|

Video #1
ID : 1
Format : AVC
Format/Info : Advanced Video Codec
Format profile : Baseline@L3.0
Format settings, CABAC : No
Format settings, ReFrames : 2 frames
Codec ID : avc1
Codec ID/Info : Advanced Video Coding
Duration : 1h 13mn
Bit rate : 944 Kbps
Maximum bit rate : 4 972 Kbps
Width : 640 pixels
Height : 456 pixels
Display aspect ratio : 1.85:1
Frame rate mode : Constant
Frame rate : 23.976 fps
Color space : YUV
Chroma subsampling : 4:2:0
Bit depth : 8 bits
Scan type : Progressive
Bits/(Pixel*Frame) : 0.135
Stream size : 495 MiB (71%)
Title : Brother Bear 2 _2006_
Writing library : x264 core 140 r2377+40 929f149 tMod [8-bit@4:2:0 X86_64]
Encoding settings : cabac=0 / ref=2 / deblock=1:-1:-1 / analyse=0x1:0x131 / me=umh / subme=7 / psy=1 / fade_compensate=1.00 / psy_rd=0.40:0.15 / mixed_ref=1 / me_range=32 / chroma_me=1 / trellis=2 / 8x8dct=0 / cqm=0 / deadzone=21,11 / fast_pskip=0 / chroma_qp_offset=-3 / threads=12 / lookahead_threads=2 / sliced_threads=0 / nr=0 / decimate=0 / interlaced=0 / bluray_compat=0 / constrained_intra=0 / fgo=0 / bframes=0 / weightp=0 / keyint=250 / keyint_min=23 / scenecut=40 / intra_refresh=0 / rc_lookahead=80 / rc=crf / mbtree=1 / crf=20.0000 / qcomp=0.60 / qpmin=0:0:0 / qpmax=69:69:69 / qpstep=4 / vbv_maxrate=5000 / vbv_bufsize=5000 / crf_max=0.0 / nal_hrd=none / filler=0 / ip_ratio=1.30 / aq=4:0.90 / aq-sensitivity=10.00 / aq-factor=1.00:1.00:1.00 / aq2=0 / aq3=0
Language : English
Encoded date : UTC 2014-02-19 05:34:45
Tagged date : UTC 2014-02-19 05:35:01
Matrix coefficients : BT.709

Video #2
ID : 5
Format : JPEG
Codec ID : jpeg
Duration : 1h 13mn
Bit rate mode : Variable
Bit rate : 1 192 bps
Width : 640 pixels
Height : 342 pixels
Display aspect ratio : 1.85:1
Frame rate mode : Variable
Frame rate : 0.003 fps
Minimum frame rate : 0.001 fps
Maximum frame rate : 0.006 fps
Color space : YUV
Chroma subsampling : 4:2:0
Bit depth : 8 bits
Compression mode : Lossy
Bits/(Pixel*Frame) : 1.815
Stream size : 582 KiB (0%)
Language : English
Encoded date : UTC 2014-02-19 05:53:08
Tagged date : UTC 2014-02-19 05:53:08

Audio #1
ID : 2
Format : AAC
Format/Info : Advanced Audio Codec
Format profile : LC
Codec ID : 40
Duration : 1h 13mn
Bit rate mode : Variable
Bit rate : 188 Kbps
Maximum bit rate : 235 Kbps
Channel(s) : 2 channels
Channel positions : Front: L R
Sampling rate : 48.0 KHz
Compression mode : Lossy
Stream size : 98.7 MiB (14%)
Title : Dub
Language : Russian
Encoded date : UTC 2014-02-19 05:30:21
Tagged date : UTC 2014-02-19 05:35:01

Audio #2
ID : 3
Format : AAC
Format/Info : Advanced Audio Codec
Format profile : LC
Codec ID : 40
Duration : 1h 13mn
Bit rate mode : Variable
Bit rate : 192 Kbps
Maximum bit rate : 236 Kbps
Channel(s) : 2 channels
Channel positions : Front: L R
Sampling rate : 48.0 KHz
Compression mode : Lossy
Stream size : 101 MiB (14%)
Title : Original
Language : English
Encoded date : UTC 2014-02-19 05:33:21
Tagged date : UTC 2014-02-19 05:35:01

Menu
ID : 4
Codec ID : text
Duration : 1h 13mn
Language : English
Encoded date : UTC 2014-02-19 05:35:34
Tagged date : UTC 2014-02-19 05:35:34
Bit rate mode : CBR
Sort Name: Brother Bear 2
XID: Apple:vendor_id:2006-tt0465925
contentID: 187696289
Copyright: © Buena Vista Home Entertainment
Screenwriters: Рич Барнс, Стив Бенчич, Лорн Кэмерон
Producers: Джим Бэллэнтайн, Кэролин Бейтс, Дэн Форстер
Director: Benjamin Gluck
Cast: Патрик Демпси, Мэнди Мур, Джереми Суарес, Рик Морэнис, Дэйв Томас, Андреа Мартин, Кэтрин О’Хара, Ванда Сайкес, Уэнди Мэлик, Кэти Нэджими, Андрей Зайцев, Мария Цветкова-Овсянникова, Иван Чабан, Максим Сергеев, Юрий Лазарев
Studio: DisneyToon Studios
Rating: 2
Long Deion: Это снова мы, но уже в новом мультфильме. Но не только мы, лоси, но также и большой медведь (его зовут Кенаи) и его маленький братец медвежонок (его зовут Кода) и еще новая девочка по имени Нита.
Deion: Это снова мы, но уже в новом мультфильме. Но не только мы, лоси, но также и большой медведь (его зовут Кенаи) и его маленький братец медвежонок (его зовут Кода) и еще новая девочка по имени Нита.
Release Date: 2006-08-29T07:00:00Z
Genre: Kids & Family
Comments: «The moose are on the loose»
Artist: Бен Глюк
Name: Братец медвежонок 2: Лоси в бегах
x264 [info]: frame I:1547 Avg QP:18.09 size: 29696
x264 [info]: frame P:103829 Avg QP:20.54 size: 4552
x264 [info]: mb I I16..4: 36.6% 0.0% 63.4%
x264 [info]: mb P I16..4: 2.2% 0.0% 1.4% P16..4: 43.0% 8.9% 4.4% 0.8% 0.4% skip:39.0%
x264 [info]: coded y,uvDC,uvAC intra: 40.3% 66.5% 36.6% inter: 16.8% 27.3% 10.1%
x264 [info]: i16 v,h,dc,p: 43% 21% 11% 25%
x264 [info]: i4 v,h,dc,ddl,ddr,vr,hd,vl,hu: 24% 18% 19% 7% 7% 7% 7% 6% 5%
x264 [info]: i8c dc,h,v,p: 52% 19% 20% 9%
x264 [info]: ref P L0: 73.3% 26.7%
x264 [info]: kb/s:943.99
[/url




   Похожие торренты   Торрент   Размер 
В этой теме нет новых непрочитанных сообщений. Братец медвежонок 2: Лоси в бегах / Brother Bear 2 (2006) BDRip-AVC | iPad

22 | 5

974.71 МБ

В этой теме нет новых непрочитанных сообщений. Братец медвежонок 2: Лоси в бегах / Brother Bear 2 (2006) BDRip от HQCLUB

324 | 19

1.46 ГБ

В этой теме нет новых непрочитанных сообщений. Братец медвежонок 2: Лоси в бегах / Brother Bear 2 (2006) BDRip-AVC от MediaClub

60 | 5

1.47 ГБ

В этой теме нет новых непрочитанных сообщений. Братец медвежонок 2: Лоси в бегах / Brother Bear 2 (2006) DVD9

0 | 3

4.78 ГБ

В этой теме нет новых непрочитанных сообщений. Братец медвежонок 2: Лоси в бегах / Brother Bear 2 (2006) BDRip 720p от Leonardo and Scarabey | Лицензия

532 | 31

1.64 ГБ

В этой теме нет новых непрочитанных сообщений. Братец медвежонок 2: Лоси в бегах / Brother Bear 2 (2006) BDRemux 1080p от HDTracker

0 | 3

17.89 ГБ

В этой теме нет новых непрочитанных сообщений. Братец медвежонок 2: Лоси в бегах / Brother Bear 2 (2003) BDRip 1080p от MediaClub

43 | 5

3.83 ГБ




Вы не можете начинать темы
Вы не можете отвечать на сообщения
Вы не можете редактировать свои сообщения
Вы не можете удалять свои сообщения
Вы не можете добавлять вложения

Перейти:  
Для Мосгорсуда, Роскомнадзора и рекламодателей: mosgorsud-torrent[собачка]yandex.ru
 Вход
ppkBB3cker v.2 © 2008-2014 @ PPK
[ Time : 0.056s | 16 Queries | GZIP : Off ]

cron