img image001 image001 image001 image001 image001 image001 image001 image001 image001 image001 image001 image001 image001 image001 image001

Planets Sun Sun Sun
Статистика раздачи
Автор: Nickolas3434 | Размер: 115.13 МБ | Добавлен: 20 фев 2014
Раздают: 19    Качают: 2
Скачать торрент
Скачать торрент
Описание торрента

СообщениеДобавлено: 20 фев 2014 

Информация о файле
Название: Поездка к морю
Выпущено: Россия, Кинокомпания "Снега"
Жанр: Мультфильм, рисованный, короткометражный, детский
Продолжительность: 00:07:00
Год выпуска: 2008
Перевод: Не требуется

Режиссёр: Нина Бисярина

Описание: Три дня в поезде по дороге к мечте. Девочка отправляется с бабушкой из дождливого города к морю, которое лучезарно сияет с цветной открытки, - поэтичная история складывается из самых обыкновенных вещей. Дрожат стаканы в подстаканниках, трепещут занавески в коридоре, мелькают за окном столбы и плюшевые игрушки станционных торговцев - и оживают фантазии о близкой мечте: плещутся на столике золотые рыбки, а светящиеся многоэтажки за окном превращаются в огромный теплоход, плывущий по темным волнам. И ничего, что море в конце путешествия оказывается дождливым, как пункт отправления, - зато оно настоящее!



Файл
Качество: DVDRip (Исходник: DVD-5)
Формат: AVI
Видео: XviD, 2100 Кбит/с, 704x400 (16:9), 25 кадр/с
Аудио: Dolby AC3, 48000 Гц, 2 канала (Стерео), 192 Кбит/с
Субтитры: Английские (Хардсаб)



Автор рипа - ivandubskoj

- 15 августа 2010 года в Выборге XVIII фестиваль Российского кино «Окно в Европу»
Приз за лучший анимационный фильм
- 11 мая 2010 года в немецком Штутгарте 17-й Международный анимационный фестиваль.
Спец-упоминания жюри основного конкурса. Жюри особо отметило "интимность и нежность" данной работы
- XVI Международного фестиваля анимационных фильмов «Крок-2009»
Приз в категории «Фильмы продолжительностью 5-10 минут»
- 15-й Открытый Российский фестиваль в Суздале - 2010
Приз за лучшую режиссуру, 3 место по зрительском рейтингу
Общее
Полное имя : Poyezdka.k.moryu.2008.DVDRip.avi
Формат : AVI
Формат/Информация : Audio Video Interleave
Размер файла : 115 Мбайт
Продолжительность : 7 м. 0 с.
Общий поток : 2300 Кбит/сек
Название фильма : Поездка к морю (2008) DVDRip
Жанр : Мультфильм, рисованный, короткометражный, детский
Дата записи : 19.02.2014
Программа кодирования : VirtualDubMod 1.5.10.3 (build 2550/release)
Библиотека кодирования : VirtualDubMod build 2550/release
Правообладатель : rip by ivandubskoj

Видео
Идентификатор : 0
Формат : MPEG-4 Visual
Профиль формата : Advanced Simple@L5
Параметр BVOP формата : 1
Параметр QPel формата : Нет
Параметр GMC формата : Без точки перехода
Параметр матрицы формата : Default (MPEG)
Идентификатор кодека : XVID
Идентификатор кодека/Подсказка : XviD
Продолжительность : 7 м. 0 с.
Битрейт : 2100 Кбит/сек
Ширина : 704 пикселя
Высота : 400 пикселей
Соотношение сторон : 16:9
Частота кадров : 25,000 кадров/сек
Цветовое пространство : YUV
Субдискретизация насыщенности : 4:2:0
Битовая глубина : 8 бит
Тип развёртки : Прогрессивная
Метод сжатия : С потерями
Бит/(Пиксели*Кадры) : 0.298
Размер потока : 105 Мбайт (91%)
Библиотека кодирования : XviD 73

Аудио
Идентификатор : 1
Формат : AC-3
Формат/Информация : Audio Coding 3
Расширение режима : CM (complete main)
Параметр Endianness формата : Big
Идентификатор кодека : 2000
Продолжительность : 7 м. 0 с.
Вид битрейта : Постоянный
Битрейт : 192 Кбит/сек
Каналы : 2 канала
Расположение каналов : Front: L R
Частота : 48,0 КГц
Битовая глубина : 16 бит
Метод сжатия : С потерями
Размер потока : 9,61 Мбайт (8%)
Выравнивание : Разделение по промежуткам
Продолжительность промежутка : 64 мс. (1,60 видеокадра)
Время предзагрузки промежутка : 500 мс.
Заголовок : Russian




   Похожие торренты   Торрент   Размер 
В этой теме нет новых непрочитанных сообщений. Поездка к морю (2008) DVDRip от ivandubskoj

2 | 3

99.82 МБ

В этой теме нет новых непрочитанных сообщений. Поездка к морю (2008) DVDRip от ivandubskoj

15 | 2

105.1 МБ

В этой теме нет новых непрочитанных сообщений. Летняя поездка к морю (1978) DVDRip от Кинорадиомагия

88 | 54

1.35 ГБ

В этой теме нет новых непрочитанных сообщений. Снежный ангел (2008) DVDRip от ivandubskoj

121 | 11

1.46 ГБ

В этой теме нет новых непрочитанных сообщений. Не родись красивым (2008) DVDRip от ivandubskoj

43 | 6

1.46 ГБ

В этой теме нет новых непрочитанных сообщений. Снежный ангел (2008) DVDRip от ivandubskoj

24 | 5

746.69 МБ

В этой теме нет новых непрочитанных сообщений. 80 минут / 80 Minutes (2008) DVDRip от ivandubskoj | P2

42 | 32

703.56 МБ




Вы не можете начинать темы
Вы не можете отвечать на сообщения
Вы не можете редактировать свои сообщения
Вы не можете удалять свои сообщения
Вы не можете добавлять вложения

Перейти:  
Для Мосгорсуда, Роскомнадзора и рекламодателей: mosgorsud-torrent[собачка]yandex.ru
 Вход
ppkBB3cker v.2 © 2008-2014 @ PPK
[ Time : 0.022s | 15 Queries | GZIP : Off ]

Торрент трекер RUTOR.IN, Не можете зайти на rutor.org? Какой новый адрес рутор? Какое зеркало рутор? Не работает rutor.org и зеркала? Тогда наш торрент специально для вас. Rutor.in неофициальное зеркало rutor. В случае если у Вас заблокирован rutor или вдруг Вы не можете на него зайти, то Вы без труда сможете скачать бесплатно и без рекламы последние новинки кино, игр, сериалов и прочего у нас, на Rutor.in. Не нужно использовать прокси, чтобы зайти на рутор, достаточно воспользоваться нашим ресурсом. Все новые фильмы, игры, сериалы, книги и музыка за 2013 и 2014 годы через торрент бесплатно. Скачивайте фильмы в хорошем качестве, игры для пк, xbox, playstation без регистрации. У нас вы найдете новые Зарубежные сериалы и Русские сериалы 2013, 2014, 2015 годов. Оставайтесь с нами, качайте любимые фильмы, игры, сериалы, книги и музыку.