img image001 image001 image001 image001 image001 image001 image001 image001 image001 image001 image001 image001 image001 image001 image001

Planets Sun Sun Sun
Статистика раздачи
Автор: Nickolas3434 | Размер: 4.37 ГБ | Добавлен: 20 фев 2014
Раздают: 745    Качают: 156
Скачать торрент
Скачать торрент
Описание торрента

СообщениеДобавлено: 20 фев 2014 

Информация о фильме
Название: Кумба
Оригинальное название: Khumba
Год выхода: 2013
Жанр: мультфильм, приключения, семейный
Режиссер: Энтони Силверстон
В ролях: Джейк Т. Остин, Лиам Нисон, Стив Бушеми, Анна-София Робб, Лоренс Фишбёрн, Грег Эллис, Ричард Э. Грант, Кэтрин Тейт, Чарльз Адлер, Ди Брэдли Бейкер

О фильме: Зебра Кумба с самого рождения был посмешищем всего стада из-за того, что родился наполовину полосатым, а наполовину белым. Хуже того, когда началась Великая Засуха, сородичи решили, что он проклят, и в нем причина всех бед. Стадо изгнало Кумбу, и даже отец отвернулся от него! Отважная полуполосатая зебра отправляется в опасные и веселые приключения, чтобы найти недостающие полоски и заслужить уважение семьи…



Выпущено: Triggerfish Animation
Продолжительность: 01:25:18
Перевод: Дублированный (лицензия)

Файл
Кодек: x264
Качество: BDRip (источник: Blu-ray Disc)
Видео: 1920x796 (2,40:1), 23.976 fps, 6250 kbps
Аудио #1: AC-3, 6 ch, 448 kbps (Rus)
Аудио #2: AC-3, 6 ch, 640 kbps (Eng)
Субтитры: Английские
Скачать: сэмпл

Скриншоты

Общее
Уникальный идентификатор : 250913802904222044860899697636784369100 (0xBCC43D9B10440BA39B66E90FD33A6DCC)
Полное имя : Khumba.2013.BDRip.1080p.Rus.Eng.mkv
Формат : Matroska
Версия формата : Version 2
Размер файла : 4,37 Гбайт
Продолжительность : 1 ч. 25 м.
Общий поток : 7331 Кбит/сек
Название фильма : Кумба / Khumba (2013)
Дата кодирования : UTC 2014-02-19 03:03:17
Программа кодирования : mkvmerge v5.8.0 ('No Sleep / Pillow') built on Sep 2 2012 15:37:04
Библиотека кодирования : libebml v1.2.3 + libmatroska v1.3.0

Видео
Идентификатор : 1
Формат : AVC
Формат/Информация : Advanced Video Codec
Профиль формата : High@L4.1
Параметр CABAC формата : Да
Параметр ReFrames формата : 5 кадров
Идентификатор кодека : V_MPEG4/ISO/AVC
Продолжительность : 1 ч. 25 м.
Битрейт : 6250 Кбит/сек
Ширина : 1920 пикселей
Высота : 796 пикселей
Соотношение сторон : 2,40:1
Режим частоты кадров : Постоянный
Частота кадров : 23,976 кадра/сек
Цветовое пространство : YUV
Субдискретизация насыщенности : 4:2:0
Битовая глубина : 8 бит
Тип развёртки : Прогрессивная
Бит/(Пиксели*Кадры) : 0.171
Размер потока : 3,63 Гбайт (83%)
Заголовок : Release by AlexKa
Библиотека кодирования : x264 core 142 r2389 956c8d8
Настройки программы : cabac=1 / ref=5 / deblock=1:0:0 / analyse=0x3:0x133 / me=umh / subme=11 / psy=1 / psy_rd=1.00:0.00 / mixed_ref=1 / me_range=32 / chroma_me=1 / trellis=2 / 8x8dct=1 / cqm=0 / deadzone=21,11 / fast_pskip=0 / chroma_qp_offset=-2 / threads=12 / lookahead_threads=2 / sliced_threads=0 / nr=0 / decimate=0 / interlaced=0 / bluray_compat=0 / constrained_intra=0 / bframes=7 / b_pyramid=2 / b_adapt=2 / b_bias=0 / direct=3 / weightb=1 / open_gop=0 / weightp=2 / keyint=240 / keyint_min=23 / scenecut=40 / intra_refresh=0 / rc=2pass / mbtree=0 / bitrate=6250 / ratetol=1.0 / qcomp=0.60 / qpmin=0 / qpmax=69 / qpstep=4 / cplxblur=20.0 / qblur=0.5 / ip_ratio=1.40 / pb_ratio=1.30 / aq=1:0.70
Язык : English

Аудио #1
Идентификатор : 2
Формат : AC-3
Формат/Информация : Audio Coding 3
Расширение режима : CM (complete main)
Параметр Endianness формата : Big
Идентификатор кодека : A_AC3
Продолжительность : 1 ч. 25 м.
Вид битрейта : Постоянный
Битрейт : 448 Кбит/сек
Каналы : 6 каналов
Расположение каналов : Front: L C R, Side: L R, LFE
Частота : 48,0 КГц
Битовая глубина : 16 бит
Метод сжатия : С потерями
Размер потока : 273 Мбайт (6%)
Заголовок : Rus
Язык : Russian

Аудио #2
Идентификатор : 3
Формат : AC-3
Формат/Информация : Audio Coding 3
Расширение режима : CM (complete main)
Параметр Endianness формата : Big
Идентификатор кодека : A_AC3
Продолжительность : 1 ч. 25 м.
Вид битрейта : Постоянный
Битрейт : 640 Кбит/сек
Каналы : 6 каналов
Расположение каналов : Front: L C R, Side: L R, LFE
Частота : 48,0 КГц
Битовая глубина : 16 бит
Метод сжатия : С потерями
Размер потока : 390 Мбайт (9%)
Заголовок : Eng
Язык : English

Текст
Идентификатор : 4
Формат : UTF-8
Идентификатор кодека : S_TEXT/UTF8
Идентификатор кодека/Информация : UTF-8 Plain Text
Заголовок : Eng
Язык : English

Меню
00:00:00.000 : :Chapter 01
00:07:02.880 : :Chapter 02
00:14:33.622 : :Chapter 03
00:24:04.484 : :Chapter 04
00:30:51.933 : :Chapter 05
00:38:02.488 : :Chapter 06
00:45:18.507 : :Chapter 07
00:50:56.344 : :Chapter 08
00:55:26.865 : :Chapter 09
01:00:10.857 : :Chapter 10
01:09:02.304 : :Chapter 11
01:19:12.789 : :Chapter 12
01:25:17.862 : :Chapter 13
x264 [info]: frame I:1357 Avg QP:12.79 size:257150
x264 [info]: frame P:31578 Avg QP:15.16 size: 59585
x264 [info]: frame B:89776 Avg QP:16.95 size: 19628
x264 [info]: consecutive B-frames: 2.8% 4.7% 8.8% 52.6% 14.5% 12.9% 2.4% 1.3%



   Похожие торренты   Торрент   Размер 
В этой теме нет новых непрочитанных сообщений. Кумба / Khumba (2013) BDRip 1080p от Ash61 | 3D-Video | halfOU

276 | 61

3.9 ГБ

В этой теме нет новых непрочитанных сообщений. Король сафари / Кумба / Khumba (2013) BDRip 1080p от New-Team | 2xD, L1 | лицензия

196 | 51

6.5 ГБ

В этой теме нет новых непрочитанных сообщений. Король сафари / Кумба / Khumba (2013) BDRip 1080p от Ash61 | 3D-Video | halfOU | Лицензия

414 | 55

4.16 ГБ

В этой теме нет новых непрочитанных сообщений. Кумба / Khumba (2013) BDRemux 1080p от ExKinoRay | D, L1

30 | 25

16.43 ГБ

В этой теме нет новых непрочитанных сообщений. Кумба 2D, 3D / Khumba 2D, 3D (2013) Blu-Ray 1080p от BLUEBIRD | 3D-Video | Лицензия

5 | 4

36.23 ГБ

В этой теме нет новых непрочитанных сообщений. Король сафари / Кумба / Khumba (2013) BDRemux 1080p от New-Team | D | лицензия

33 | 13

16.78 ГБ

В этой теме нет новых непрочитанных сообщений. Кумба / Khumba (2013) BDRip-AVC от -=HD-NET=- | Лицензия

382 | 86

1.37 ГБ




Вы не можете начинать темы
Вы не можете отвечать на сообщения
Вы не можете редактировать свои сообщения
Вы не можете удалять свои сообщения
Вы не можете добавлять вложения

Перейти:  
Для Мосгорсуда, Роскомнадзора и рекламодателей: mosgorsud-torrent[собачка]yandex.ru
 Вход
ppkBB3cker v.2 © 2008-2014 @ PPK
[ Time : 1.950s | 18 Queries | GZIP : Off ]

Торрент трекер RUTOR.IN, Не можете зайти на rutor.org? Какой новый адрес рутор? Какое зеркало рутор? Не работает rutor.org и зеркала? Тогда наш торрент специально для вас. Rutor.in неофициальное зеркало rutor. В случае если у Вас заблокирован rutor или вдруг Вы не можете на него зайти, то Вы без труда сможете скачать бесплатно и без рекламы последние новинки кино, игр, сериалов и прочего у нас, на Rutor.in. Не нужно использовать прокси, чтобы зайти на рутор, достаточно воспользоваться нашим ресурсом. Все новые фильмы, игры, сериалы, книги и музыка за 2013 и 2014 годы через торрент бесплатно. Скачивайте фильмы в хорошем качестве, игры для пк, xbox, playstation без регистрации. У нас вы найдете новые Зарубежные сериалы и Русские сериалы 2013, 2014, 2015 годов. Оставайтесь с нами, качайте любимые фильмы, игры, сериалы, книги и музыку.