img image001 image001 image001 image001 image001 image001 image001 image001 image001 image001 image001 image001 image001 image001 image001

Planets Sun Sun Sun
Статистика раздачи
Автор: Nickolas3434 | Размер: 2.19 ГБ | Добавлен: 22 фев 2014
Раздают: 61    Качают: 17
Скачать торрент
Скачать торрент
Описание торрента

СообщениеДобавлено: 22 фев 2014 

Информация о фильме
Название: Принц Щелкунчик
Оригинальное название: The Nutcracker Prince
Год выхода: 1990
Жанр: мультфильм, фэнтези, приключения, семейный
Режиссер: Пол Шибли
В ролях: Кифер Сазерленд, Меган Фоллоуз, Майк МакДональд, Питер О’Тул, Филлис Диллер, Питер Борецки, Лен Карлсон, Марвин Голднар, Линн Горман, Кит Хэмпшир

Описание: Наступил Сочельник, канун Рождества, и все члены семьи Штальбаумов радостно разворачивают свои рождественские подарки. Когда восторги улеглись, семилетняя Клара получает еще один, весьма необыкновенный подарок — таинственного Щелкунчика.

Злая ведьма Мышильда заколдовала племянника ее любимого крестного Дроссельмейера и превратила его в деревянную игрушку — Щелкунчика. Чтобы снять заклятие Щелкунчик должен завоевать любовь Клары и сразить злобного мышиного короля.



Страна: Канада
Продолжительность: 01:13:08
Перевод #1: Профессиональный (Дублированный) (Екатеринбург Арт)
Перевод #2: Авторский (Одноголосый, Закадровый) (Алексей Михалёв)
Перевод #3: Профессиональный (Многоголосый, Закадровый) (R5) (DVD Magic)
Перевод #4: Английский (Оригинал)

Файл
Формат: MKV
Качество: DVDRip-AVC (Источник: DVD-5)
Видео: 1024x576 (16:9), 23.976 fps, 3072 kbps, 0.217 bit/pixel
Аудио #1: AC-3, 2 ch, 192 kbps (Дублированный Екатеринбург Арт)
Аудио #2: AC-3, 2 ch, 256 kbps (Одноголосый Алексей Михалёв)
Аудио #3: AC-3, 6 ch, 384 kbps (Многоголосый DVD Magic)
Аудио #4: AC-3, 6 ch, 384 kbps (Английский Оригинал)
Субтитры: нет
Скачать: Семпл


Общее
Уникальный идентификатор : 238782904513662441662608562650986931735 (0xB3A3EA234B926A539967E01A57DD6617)
Полное имя : The.Nutcracker.Prince.1990.DVDRip.AVC.mkv
Формат : Matroska
Версия формата : Version 2
Размер файла : 2,19 Гбайт
Продолжительность : 1 ч. 13 м.
Общий поток : 4285 Кбит/сек
Дата кодирования : UTC 2014-02-21 02:34:40
Программа кодирования : mkvmerge v5.6.0 ('Kenya Kane') built on May 27 2012 16:44:04
Библиотека кодирования : libebml v1.2.3 + libmatroska v1.3.0

Видео
Идентификатор : 1
Формат : AVC
Формат/Информация : Advanced Video Codec
Профиль формата : High@L4.1
Параметр CABAC формата : Да
Параметр ReFrames формата : 8 кадров
Идентификатор кодека : V_MPEG4/ISO/AVC
Продолжительность : 1 ч. 13 м.
Битрейт : 3072 Кбит/сек
Ширина : 1024 пикселя
Высота : 576 пикселей
Соотношение сторон : 16:9
Режим частоты кадров : Постоянный
Частота кадров : 23,976 кадра/сек
Цветовое пространство : YUV
Субдискретизация насыщенности : 4:2:0
Битовая глубина : 8 бит
Тип развёртки : Прогрессивная
Бит/(Пиксели*Кадры) : 0.217
Размер потока : 1,52 Гбайт (70%)
Заголовок : Принц Щелкунчик / The Nutcracker Prince (1990)
Библиотека кодирования : x264 core 140 r2377 1ca7bb9
Настройки программы : cabac=1 / ref=8 / deblock=1:-2:-2 / analyse=0x3:0x113 / me=umh / subme=11 / psy=1 / psy_rd=1.00:0.00 / mixed_ref=1 / me_range=32 / chroma_me=1 / trellis=2 / 8x8dct=1 / cqm=0 / deadzone=21,11 / fast_pskip=1 / chroma_qp_offset=-2 / threads=6 / lookahead_threads=1 / sliced_threads=0 / nr=0 / decimate=1 / interlaced=0 / bluray_compat=0 / constrained_intra=0 / bframes=6 / b_pyramid=2 / b_adapt=2 / b_bias=0 / direct=3 / weightb=1 / open_gop=0 / weightp=2 / keyint=240 / keyint_min=23 / scenecut=40 / intra_refresh=0 / rc=2pass / mbtree=0 / bitrate=3072 / ratetol=1.0 / qcomp=0.60 / qpmin=0 / qpmax=69 / qpstep=4 / cplxblur=20.0 / qblur=0.5 / ip_ratio=1.40 / pb_ratio=1.30 / aq=1:1.00
Язык : English
Default : Да
Forced : Нет
Основные цвета : BT.601 NTSC
Характеристики трансфера : BT.709
Коэффициенты матрицы : BT.601

Аудио #1
Идентификатор : 2
Формат : AC-3
Формат/Информация : Audio Coding 3
Расширение режима : CM (complete main)
Параметр Endianness формата : Big
Идентификатор кодека : A_AC3
Продолжительность : 1 ч. 13 м.
Вид битрейта : Постоянный
Битрейт : 192 Кбит/сек
Каналы : 2 канала
Расположение каналов : Front: L R
Частота : 48,0 КГц
Битовая глубина : 16 бит
Метод сжатия : С потерями
Размер потока : 100 Мбайт (4%)
Заголовок : Дублированный 2.0 (Екатеринбург Арт)
Язык : Russian
Default : Да
Forced : Нет

Аудио #2
Идентификатор : 3
Формат : AC-3
Формат/Информация : Audio Coding 3
Расширение режима : CM (complete main)
Параметр Endianness формата : Big
Идентификатор кодека : A_AC3
Продолжительность : 1 ч. 13 м.
Вид битрейта : Постоянный
Битрейт : 256 Кбит/сек
Каналы : 2 канала
Расположение каналов : Front: L R
Частота : 48,0 КГц
Битовая глубина : 16 бит
Метод сжатия : С потерями
Размер потока : 134 Мбайт (6%)
Заголовок : Алексей Михалёв 2.0
Язык : Russian
Default : Нет
Forced : Нет

Аудио #3
Идентификатор : 4
Формат : AC-3
Формат/Информация : Audio Coding 3
Расширение режима : CM (complete main)
Параметр Endianness формата : Big
Идентификатор кодека : A_AC3
Продолжительность : 1 ч. 13 м.
Вид битрейта : Постоянный
Битрейт : 384 Кбит/сек
Каналы : 6 каналов
Расположение каналов : Front: L C R, Side: L R, LFE
Частота : 48,0 КГц
Битовая глубина : 16 бит
Метод сжатия : С потерями
Размер потока : 201 Мбайт (9%)
Заголовок : Многоголосый 5.1 (DVD Magic)
Язык : Russian
Default : Нет
Forced : Нет

Аудио #4
Идентификатор : 5
Формат : AC-3
Формат/Информация : Audio Coding 3
Расширение режима : CM (complete main)
Параметр Endianness формата : Big
Идентификатор кодека : A_AC3
Продолжительность : 1 ч. 13 м.
Вид битрейта : Постоянный
Битрейт : 384 Кбит/сек
Каналы : 6 каналов
Расположение каналов : Front: L C R, Side: L R, LFE
Частота : 48,0 КГц
Битовая глубина : 16 бит
Метод сжатия : С потерями
Размер потока : 201 Мбайт (9%)
Заголовок : Английский 5.1 (Оригинал)
Язык : English
Default : Нет
Forced : Нет



   Похожие торренты   Торрент   Размер 
В этой теме нет новых непрочитанных сообщений. Принц Щелкунчик / The Nutcracker Prince (1990) DVDRip

23 | 5

1.37 ГБ

В этой теме нет новых непрочитанных сообщений. Щелкунчик и Крысиный король / The Nutcracker (2010) DVDRip

22 | 3

703.09 МБ

В этой теме нет новых непрочитанных сообщений. Щелкунчик и крысиный король 3D / The Nutcracker in 3D [making of] (2010) DVDRip

14 | 3

1.29 ГБ

В этой теме нет новых непрочитанных сообщений. Барби и Щелкунчик / Barbie in the Nutcracker (2001) DVDRip от Files-x

40 | 7

1.37 ГБ

В этой теме нет новых непрочитанных сообщений. Мэттью Борн - Щелкунчик / Matthew Bourne's Nutcracker! (2003) DVDRip - Generalfilm

10 | 4

1.37 ГБ

В этой теме нет новых непрочитанных сообщений. Щелкунчик / The Nutcracker (1993) HDTVRip

3 | 2

744.15 МБ

В этой теме нет новых непрочитанных сообщений. Щелкунчик / The Nutcracker (1993) HDTVRip

5 | 3

1.45 ГБ




Вы не можете начинать темы
Вы не можете отвечать на сообщения
Вы не можете редактировать свои сообщения
Вы не можете удалять свои сообщения
Вы не можете добавлять вложения

Перейти:  
Для Мосгорсуда, Роскомнадзора и рекламодателей: mosgorsud-torrent[собачка]yandex.ru
 Вход
ppkBB3cker v.2 © 2008-2014 @ PPK
[ Time : 0.070s | 16 Queries | GZIP : Off ]

Торрент трекер RUTOR.IN, Не можете зайти на rutor.org? Какой новый адрес рутор? Какое зеркало рутор? Не работает rutor.org и зеркала? Тогда наш торрент специально для вас. Rutor.in неофициальное зеркало rutor. В случае если у Вас заблокирован rutor или вдруг Вы не можете на него зайти, то Вы без труда сможете скачать бесплатно и без рекламы последние новинки кино, игр, сериалов и прочего у нас, на Rutor.in. Не нужно использовать прокси, чтобы зайти на рутор, достаточно воспользоваться нашим ресурсом. Все новые фильмы, игры, сериалы, книги и музыка за 2013 и 2014 годы через торрент бесплатно. Скачивайте фильмы в хорошем качестве, игры для пк, xbox, playstation без регистрации. У нас вы найдете новые Зарубежные сериалы и Русские сериалы 2013, 2014, 2015 годов. Оставайтесь с нами, качайте любимые фильмы, игры, сериалы, книги и музыку.
cron