img image001 image001 image001 image001 image001 image001 image001 image001 image001 image001 image001 image001 image001 image001 image001

Planets Sun Sun Sun
Статистика раздачи
Автор: Nickolas3434 | Размер: 974.51 МБ | Добавлен: 22 фев 2014
Раздают: 60    Качают: 8
Скачать торрент
Скачать торрент
Описание торрента

СообщениеДобавлено: 22 фев 2014 

Кумба / Khumba (2013) BDRip-AVC | iPhone | D


Название: Кумба
Оригинальное название: Khumba
Год выхода: 2013
Жанр: мультфильм, приключения, семейный
Режиссер: Энтони Силверстон
В ролях: Джейк Т. Остин, Лиам Нисон, Стив Бушеми, Анна-София Робб, Лоренс Фишбёрн, Грег Эллис, Ричард Э. Грант, Кэтрин Тейт, Чарльз Адлер, Ди Брэдли Бейкер

О фильме:
Зебра Кумба с самого рождения был посмешищем всего стада из-за того, что родился наполовину полосатым, а наполовину белым. Хуже того, когда началась Великая Засуха, сородичи решили, что он проклят, и в нем причина всех бед. Стадо изгнало Кумбу, и даже отец отвернулся от него! Отважная полуполосатая зебра отправляется в опасные и веселые приключения, чтобы найти недостающие полоски и заслужить уважение семьи...



Страна: ЮАР
Студия: Triggerfish Animation

Продолжительность: 01:25:18
Перевод: Русский дублированный

Файл
Кодек: H.264
Качество: BDRip-AVC 480p iPhone
Видео: 640x356@852x356 (2.40:1) at 23.976 fps, AVC at 1200 kbps
Звук:
1: 48 kHz, AAC 2.0, 192 kbps - Русский дублированный
2: 48 kHz, AAC 2.0, 192 kbps - Английский
Субтитры: Отсутствуют

General
Complete name : C:CREATE480outKhumba.2013 (SD).m4v
Format : MPEG-4
Codec ID : M4V
File size : 975 MiB
Duration : 1h 25mn
Overall bit rate mode : Variable
Overall bit rate : 1 597 Kbps
Movie name : Кумба
Performer : Энтони Силверстон
Genre : Kids & Family
Recorded date : UTC 2013-12-06 08:00:00
Encoded date : UTC 2014-02-21 10:37:25
Tagged date : UTC 2014-02-21 11:00:29
Copyright : Triggerfish Animation
Cover : Yes
Comment : «Half a zebra, a whole lot of adventure!»
sonm : Khumba
desc : Зебра Кумба с самого рождения был посмешищем всего стада из-за того, что родился наполовину полосатым, а наполовину белым. Хуже того, когда началась Великая Засуха, сородичи решили, что он проклят, и в нем причина всех бед.
ldes : Зебра Кумба с самого рождения был посмешищем всего стада из-за того, что родился наполовину полосатым, а наполовину белым. Хуже того, когда началась Великая Засуха, сородичи решили, что он проклят, и в нем причина всех бед. Стадо изгнало Кумбу, и даже отец отвернулся от него! Отважная полуполосатая зебра отправляется в опасные и веселые приключения, чтобы найти недостающие полоски и заслужить уважение семьи...
stik : 9
rtng : 0
cnID : 790403494
xid : «Half a zebra, a whole lot of adventure!»
iTunEXTC : mpaa|G|100|

Video #1
ID : 1
Format : AVC
Format/Info : Advanced Video Codec
Format profile : Baseline@L3.0
Format settings, CABAC : No
Format settings, ReFrames : 2 frames
Format settings, GOP : N=1
Codec ID : avc1
Codec ID/Info : Advanced Video Coding
Duration : 1h 25mn
Bit rate : 1 200 Kbps
Maximum bit rate : 6 042 Kbps
Width : 640 pixels
Height : 356 pixels
Display aspect ratio : 2.40:1
Frame rate mode : Constant
Frame rate : 23.976 fps
Color space : YUV
Chroma subsampling : 4:2:0
Bit depth : 8 bits
Scan type : Progressive
Bits/(Pixel*Frame) : 0.220
Stream size : 732 MiB (75%)
Title : KHUMBA _2013_
Writing library : x264 core 140 r2377+40 929f149 tMod [8-bit@4:2:0 X86_64]
Encoding settings : cabac=0 / ref=2 / deblock=1:-1:-1 / analyse=0x1:0x131 / me=umh / subme=7 / psy=1 / fade_compensate=1.00 / psy_rd=0.40:0.15 / mixed_ref=1 / me_range=32 / chroma_me=1 / trellis=2 / 8x8dct=0 / cqm=0 / deadzone=21,11 / fast_pskip=0 / chroma_qp_offset=-3 / threads=12 / lookahead_threads=2 / sliced_threads=0 / nr=0 / decimate=0 / interlaced=0 / bluray_compat=0 / constrained_intra=0 / fgo=0 / bframes=0 / weightp=0 / keyint=250 / keyint_min=23 / scenecut=40 / intra_refresh=0 / rc_lookahead=80 / rc=2pass / mbtree=1 / bitrate=1200 / ratetol=1.0 / qcomp=0.60 / qpmin=0:0:0 / qpmax=69:69:69 / qpstep=4 / cplxblur=20.0 / qblur=0.5 / vbv_maxrate=5000 / vbv_bufsize=5000 / nal_hrd=none / filler=0 / ip_ratio=1.40 / aq=4:0.90 / aq-sensitivity=10.00 / aq-factor=0.90:0.90:1.00 / aq2=0 / aq3=0
Language : English
Encoded date : UTC 2014-02-21 10:37:25
Tagged date : UTC 2014-02-21 10:37:51
Matrix coefficients : BT.709

Video #2
ID : 5
Format : JPEG
Codec ID : jpeg
Duration : 1h 25mn
Bit rate mode : Variable
Bit rate : 620 bps
Width : 640 pixels
Height : 267 pixels
Display aspect ratio : 2.40:1
Frame rate mode : Variable
Frame rate : 0.002 fps
Minimum frame rate : 0.002 fps
Maximum frame rate : 0.004 fps
Color space : YUV
Chroma subsampling : 4:2:0
Bit depth : 8 bits
Compression mode : Lossy
Bits/(Pixel*Frame) : 1.814
Stream size : 454 KiB (0%)
Language : English
Encoded date : UTC 2014-02-21 10:55:55
Tagged date : UTC 2014-02-21 10:55:56

Audio #1
ID : 2
Format : AAC
Format/Info : Advanced Audio Codec
Format profile : LC
Codec ID : 40
Duration : 1h 25mn
Bit rate mode : Variable
Bit rate : 196 Kbps
Maximum bit rate : 246 Kbps
Channel(s) : 2 channels
Channel positions : Front: L R
Sampling rate : 48.0 KHz
Compression mode : Lossy
Stream size : 120 MiB (12%)
Title : Dub
Language : Russian
Encoded date : UTC 2014-02-21 10:29:46
Tagged date : UTC 2014-02-21 10:37:51

Audio #2
ID : 3
Format : AAC
Format/Info : Advanced Audio Codec
Format profile : LC
Codec ID : 40
Duration : 1h 25mn
Bit rate mode : Variable
Bit rate : 192 Kbps
Maximum bit rate : 248 Kbps
Channel(s) : 2 channels
Channel positions : Front: L R
Sampling rate : 48.0 KHz
Compression mode : Lossy
Stream size : 119 MiB (12%)
Title : Original
Language : English
Encoded date : UTC 2014-02-21 10:34:58
Tagged date : UTC 2014-02-21 10:37:51

Menu
ID : 4
Codec ID : text
Duration : 1h 25mn
Language : English
Encoded date : UTC 2014-02-21 10:38:51
Tagged date : UTC 2014-02-21 10:38:51
Bit rate mode : CBR
Sort Name: Khumba
XID: «Half a zebra, a whole lot of adventure!»
contentID: 790403494
Copyright: Triggerfish Animation
Screenwriters: Раффаелла Делле Донне, Энтони Силверстон, Джонатан Робертс
Producers: Майк Баклэнд, Стюарт Форрест, Жан-Мишель Кениг
Director: Anthony Silverston
Cast: Jake T. Austin (Khumba (voice)), Liam Neeson (Phango (voice)), Steve Buscemi (Skalk (voice)), AnnaSophia Robb (Tombi (voice)), Laurence Fishburne (Seko (voice)), Richard E. Grant (Bradley (voice)), Loretta Devine (Mama V (voice)), Anika Noni Rose (Lungisa), Catherine Tate (Nora (voice)), Jennifer Cody (Fifi (voice)), Charles Adler (Wild Dog #1 (voice)), Dee Bradley Baker (Meerkat Father (voice)), Jeff Bennett (Rabbit (voice)), Loretta Devine (Mama V (voice)), Roger L. Jackson (Black Eagle (voice))
Studio: Triggerfish Animation
Rating: 2
Long Deion: Зебра Кумба с самого рождения был посмешищем всего стада из-за того, что родился наполовину полосатым, а наполовину белым. Хуже того, когда началась Великая Засуха, сородичи решили, что он проклят, и в нем причина всех бед. Стадо изгнало Кумбу, и даже отец отвернулся от него! Отважная полуполосатая зебра отправляется в опасные и веселые приключения, чтобы найти недостающие полоски и заслужить уважение семьи...
Deion: Зебра Кумба с самого рождения был посмешищем всего стада из-за того, что родился наполовину полосатым, а наполовину белым. Хуже того, когда началась Великая Засуха, сородичи решили, что он проклят, и в нем причина всех бед.
Release Date: 2013-12-06T08:00:00Z
Genre: Kids & Family
Comments: «Half a zebra, a whole lot of adventure!»
Artist: Энтони Силверстон
Name: Кумба
x264 [info]: frame I:1881 Avg QP:15.97 size: 36596
x264 [info]: frame P:120831 Avg QP:18.52 size: 5784
x264 [info]: mb I I16..4: 26.9% 0.0% 73.1%
x264 [info]: mb P I16..4: 1.3% 0.0% 2.0% P16..4: 45.1% 12.3% 6.3% 1.9% 0.7% skip:30.4%
x264 [info]: coded y,uvDC,uvAC intra: 58.8% 69.4% 44.6% inter: 31.5% 24.4% 12.7%
x264 [info]: i16 v,h,dc,p: 32% 27% 11% 29%
x264 [info]: i4 v,h,dc,ddl,ddr,vr,hd,vl,hu: 30% 16% 13% 6% 8% 8% 7% 7% 5%
x264 [info]: i8c dc,h,v,p: 52% 20% 20% 8%
x264 [info]: ref P L0: 80.4% 19.6%
x264 [info]: kb/s:1200.02




   Похожие торренты   Торрент   Размер 
В этой теме нет новых непрочитанных сообщений. Кумба / Khumba (2013) BDRip-AVC от -=HD-NET=- | Лицензия

382 | 86

1.37 ГБ

В этой теме нет новых непрочитанных сообщений. Кумба / Khumba (2013) BDRip 1080p

745 | 156

4.37 ГБ

В этой теме нет новых непрочитанных сообщений. Кумба / Khumba (2013) BDRip 720p | D, L1

172 | 24

2.81 ГБ

В этой теме нет новых непрочитанных сообщений. Кумба / Khumba (2013) BDRip-AVC от HELLYWOOD | Лицензия

563 | 75

1.46 ГБ

В этой теме нет новых непрочитанных сообщений. Король сафари / Кумба / Khumba (2013) BDRip-AVC от olegek70 | D

2 | 1

1.45 ГБ

В этой теме нет новых непрочитанных сообщений. Кумба / Khumba (2013) BDRip 720p от Leonardo and Scarabey

122 | 46

1.78 ГБ

В этой теме нет новых непрочитанных сообщений. Король сафари / Кумба / Khumba (2013) BDRip от HQCLUB | Лицензия

146 | 14

1.45 ГБ




Вы не можете начинать темы
Вы не можете отвечать на сообщения
Вы не можете редактировать свои сообщения
Вы не можете удалять свои сообщения
Вы не можете добавлять вложения

Перейти:  
Для Мосгорсуда, Роскомнадзора и рекламодателей: mosgorsud-torrent[собачка]yandex.ru
 Вход
ppkBB3cker v.2 © 2008-2014 @ PPK
[ Time : 0.071s | 16 Queries | GZIP : Off ]

Торрент трекер RUTOR.IN, Не можете зайти на rutor.org? Какой новый адрес рутор? Какое зеркало рутор? Не работает rutor.org и зеркала? Тогда наш торрент специально для вас. Rutor.in неофициальное зеркало rutor. В случае если у Вас заблокирован rutor или вдруг Вы не можете на него зайти, то Вы без труда сможете скачать бесплатно и без рекламы последние новинки кино, игр, сериалов и прочего у нас, на Rutor.in. Не нужно использовать прокси, чтобы зайти на рутор, достаточно воспользоваться нашим ресурсом. Все новые фильмы, игры, сериалы, книги и музыка за 2013 и 2014 годы через торрент бесплатно. Скачивайте фильмы в хорошем качестве, игры для пк, xbox, playstation без регистрации. У нас вы найдете новые Зарубежные сериалы и Русские сериалы 2013, 2014, 2015 годов. Оставайтесь с нами, качайте любимые фильмы, игры, сериалы, книги и музыку.